Quick Browse
Movies
TV shows
Music
Games
Applications
Anime
Other
Facebook
Advertising

Friends
Torrent Download
Movie4u
1337x.to
Torrent Downloads




God.Send.Me.A.Man.2010.DVDRip.XviD-ELiA


    Seeders : 105      Leechers : 121
Hash :2533D9E214645079D49DEBAF3AA8DBD263DA5572
Added :1 Year+ in Movies
Size :708.36 MB
Stream :WATCH ONLINE @ Movie4u


God.Send.Me.A.Man.2010.DVDRip.XviD-ELiA
Free and Fast Download with Usenet 300GB+ free







Trackers List

Tracker NameLast CheckStatusSeedersLeechers




Torrent File Content (4 files)


God Send Me A Man 2010 DVD www.IWANNADOWNLOAD.com
    Subs
          elia-gsmam-subs.rar -
1.12 MB

          elia-gsmam-subs.sfv -
30 bytes

     God Send Me A Man 2010 DVD www.IWANNADOWNLOAD.com.avi -
699.19 MB

     Sample.avi -
8.05 MB



Description



Filename:
God.Send.Me.A.Man.2010.DVDRip.XviD-ELiA

Video Sample:
http://www.movshare.net/video/vpngh63hsdypt

http://www.imdb.com/title/tt1554977/
http://i46.tinypic.com/2hnum0x.jpg

http://i47.tinypic.com/117z9zt.png

http://i50.tinypic.com/e18aw2.png




Format : AVI
Format/Info : Audio Video Interleave
File size : 699 MiB
Duration : 1h 26mn
Overall bit rate : 1 129 Kbps
Writing application : Nandub v1.0rc2
Writing library : Nandub build 1852/release

Video
ID : 0
Format : MPEG-4 Visual
Format profile : [email protected]
Format settings, BVOP : Yes
Format settings, QPel : No
Format settings, GMC : No warppoints
Format settings, Matrix : Default (H.263)
Codec ID : XVID
Codec ID/Hint : XviD
Duration : 1h 26mn
Bit rate : 928 Kbps
Width : 624 pixels
Height : 352 pixels
Display aspect ratio : 16:9
Frame rate : 23.976 fps
Resolution : 24 bits
Colorimetry : 4:2:0
Scan type : Progressive
Bits/(Pixel*Frame) : 0.176
Stream size : 574 MiB (82%)
Writing library : XviD 1.2.1 (UTC 2008-12-04)

Audio
ID : 1
Format : AC-3
Format/Info : Audio Coding 3
Codec ID : 2000
Duration : 1h 26mn
Bit rate mode : Constant
Bit rate : 192 Kbps
Channel(s) : 2 channels
Channel positions : L R
Sampling rate : 48.0 KHz
Video delay : 100ms
Stream size : 119 MiB (17%)
Alignment : Split accross interleaves
Interleave, duration : 42 ms (1.00 video frame)
Interleave, preload duration : 500 ms

Related torrents

Torrent NameAddedSizeSeedLeechHealth
1 Year+ - in Movies707.32 MB7745
1 Year+ - in Movies709.54 MB92
5 months ago - in Other279.28 KB00
1 Year+ - in Other458.73 MB00
1 Year+ - in Movies406.59 MB00

Comments (0 Comments)




Please login or create a FREE account to post comments

Latest Searches

| death race 3 720 p | T I stacks on deck | haider 2014 untouched bluray 1080p avc dts hdma m2ts all videos m2tv | life in pieces s01e14 internal 720p hdtv x264 killers ettv | Windows 7 Ultimate 64 Bit Trkce so | X Men Origini Wolverine 2 1080p | Lets Survive in the Woods | complications season 1 web dl | assassins creed 1 codex | assassins creed rogue crack codex |