Quick Browse
Movies
TV shows
Music
Games
Applications
Anime
Other
Facebook
Advertising

Friends
Torrent Download
Movie4u
1337x.to
Torrent Downloads




Verified torrent GolMaal ( 1979 ) DvD - RiP - Xvid - 1.36GB - { XMR }


    Seeders : 7      Leechers : 13

Trackers List

Tracker NameLast CheckStatusSeedersLeechers




Torrent File Content (1 file)


GolMaal ( 1979 ) DvD - RiP - Xvid - 1.36GB - { XMR }
     GolMaal ( 1979 ) DvD - RiP - Xvid - 1.36GB - { XMR }.avi -
1.36 GB



Description



[color=red][font=Georgia]General
Ripper : Rahul
Complete name : GolMaal ( 1979 }.avi
Format : AVI
Format/Info : Audio Video Interleave
File size : 1.36 GiB
Duration : 2h 23mn
Overall bit rate : 1 353 Kbps
Writing application : VirtualDubMod 1.5.10.3 |

Video
ID : 0
Format : MPEG-4 Visual
Format profile : Advanced [email protected]
Format settings, BVOP : Yes
Format settings, QPel : No
Format settings, GMC : No warppoints
Format settings, Matrix : Default (MPEG)
Muxing mode : Packed bitstream
Codec ID : XVID
Codec ID/Hint : XviD
Duration : 2h 23mn
Bit rate : 1 120 Kbps
Width : 608 pixels
Height : 432 pixels
Display aspect ratio : 1.407
Frame rate : 23.976 fps
Color space : YUV
Chroma subsampling : 4:2:0
Bit depth : 8 bits
Scan type : Progressive
Bits/(Pixel*Frame) : 0.178
Stream size : 1.13 GiB (83%)


Audio
ID : 1
Format : AC-3
Format/Info : Audio Coding 3
Mode extension : CM (complete main)
Codec ID : 2000
Duration : 2h 23mn
Bit rate mode : Constant
Bit rate : 224 Kbps
Channel(s) : 2 channels
Channel positions : Front: L R
Sampling rate : 48.0 KHz
Bit depth : 16 bits
Stream size : 231 MiB (17%)
Alignment : Split accross interleaves
Interleave, duration : 42 ms (1.00 video frame)
Interleave, preload duration : 500 ms
[/font][/color]

http://img706.imageshack.us/img706/7573/2j0cio0.jpg

http://img696.imageshack.us/img696/6493/10x6kxc.jpg

http://img237.imageshack.us/img237/6445/adkt9j.jpg

http://img201.imageshack.us/img201/7653/f096hj.jpg

http://img227.imageshack.us/img227/7734/ifmjaw.jpg

http://img571.imageshack.us/img571/1889/zko007.jpg


Related torrents

Torrent NameAddedSizeSeedLeechHealth
1 Year+ - in Movies700.9 MB02
1 Year+ - in Movies584.32 MB10
1 Year+ - in Other1.5 GB01
1 Year+ - in Movies2.79 GB00
1 Year+ - in Movies983.01 MB13

Comments (0 Comments)




Please login or create a FREE account to post comments

Latest Searches

| masterclass | fgt fantastic | The Exorcist s01e09 | 9th wonder dream merchant vol 1 | journey through genius the great theorems of mathematics | Swedish Erotica Kandi Barbour SuperRod | Broadchurch 2x07 | Cock Of Duty | Ray Donovan Season 4 Episode 10 | nick 01 |