Quick Browse
Movies
TV shows
Music
Games
Applications
Anime
Other
Facebook
Advertising

Friends
Torrent Download
Movie4u
1337x.to
Torrent Downloads




Verified torrent Good Deeds 2012 Eng DVDSCR xvid INFERNO


    Seeders : 1      Leechers : 3
Hash :9F124B40705E6419F23FD29458FAD60780D29EC7
Added :1 Year+ by robyrsVerified torrent uploader in Movies
Size :733.71 MB
Stream :WATCH ONLINE @ Movie4u


Good Deeds 2012 Eng DVDSCR xvid INFERNO
Free and Fast Download with Usenet 300GB+ free







Trackers List

Tracker NameLast CheckStatusSeedersLeechers




Torrent File Content (7 files)


Good Deeds 2012 Eng DVDSCR xvid INFERNO
     Good Deeds 2012 Eng DVDSCR xvid INFERNO.avi -
733.71 MB

     darkcore.me.txt -
834 bytes

     HD File info.txt -
727 bytes

     sceneunderground.org.txt -
77 bytes

     Torrent downloaded from AhaShare.com.txt -
59 bytes

     Torrent downloaded from Suprnova.me.txt -
42 bytes

     Torrent downloaded from Rarbg.com.txt -
33 bytes



Description



Good Deeds 2012 Eng DVDSCR xvid INFERNO

Story:

Businessman Wesley Deeds is jolted out of his scripted life when he meets Lindsey, a single mother who works

on the cleaning crew in his office building.

http://www.imdb.com/title/tt1885265/

http://shareimage.org/images/5wiyfw6va461rcddpksk.jpg

http://shareimage.org/images/4u7a0xf9tjoeffp2p303.jpg

http://shareimage.org/images/jjthlluw1w1nxo8yixx2.jpg

http://shareimage.org/images/1st6svkv9gwopl097lo.jpg

http://shareimage.org/images/tk8rkd5mfs0wq3hh6py.jpg

Source: FQM....THX

Format : AVI
Format/Info : Audio Video Interleave
Duration : 2h 12mn
Overall bit rate : 1 694 Kbps
Writing application : Lavf51.12.1
Writing library : VirtualDub build 33848/release

Video
ID : 0
Format : MPEG-4 Visual
Format profile : Advanced [email protected]
Format settings, BVOP : Yes
Format settings, QPel : No
Format settings, GMC : No warppoints
Format settings, Matrix : Default (H.263)
Muxing mode : Packed bitstream
Codec ID : XVID
Codec ID/Hint : XviD
Duration : 2h 12mn
Bit rate : 1 492 Kbps
Width : 720 pixels
Height : 304 pixels
Display aspect ratio : 2.35:1
Frame rate : 25.000 fps
Color space : YUV
Chroma subsampling : 4:2:0
Bit depth : 8 bits
Scan type : Progressive
Bits/(Pixel*Frame) : 0.273
Stream size : 1.02 GiB (91%)
Writing library : XviD 1.2.1 (UTC 2008-12-04)

Audio
ID : 1
Format : MPEG Audio
Format version : Version 1
Format profile : Layer 3
Mode : Joint stereo
Mode extension : MS Stereo
Codec ID : 55
Codec ID/Hint : MP3
Duration : 2h 12mn
Bit rate mode : Constant
Bit rate : 192 Kbps
Channel(s) : 2 channels
Stream size : 188 MiB (22%)
Alignment : Split accross interleaves
Interleave, duration : 40 ms (1.00 video frame)
Interleave, preload duration : 500 ms
Writing library : LAME3.98.2

Audio: untouched

Note: HD FILE REQUIREMENTS....ON

Workdone:
Well getting pm's like crazy...some believe it and some dont, but yes we removed the watermark, but only 90%

of it. Then we had a choice to blur it or not for the finishing touch. If we didnt litely blur the area you

would be able to see the outline of the watermark, so we litely blur it. Last 2 screenshots will show

examples. After that was all done, it was a pain to get this file saved in this new program and we had to

read up on it. After that was done we insert it into vdub and did our usual, levels, brightness,contrast,and

litely ran a smoother.

ENJOY THIS FINE RELEASE :)

SREENS:

http://img72.imageshack.us/img72/4679/imageposterx1.jpg


http://img696.imageshack.us/img696/3876/imagesnap013337b0c1.jpg


http://img196.imageshack.us/img196/9152/imagesnap013337b0c2.jpg


http://img141.imageshack.us/img141/9171/imagesnap013337b0c3.jpg


http://img26.imageshack.us/img26/5479/imagesnap013337b0c4.jpg

Related torrents

Torrent NameAddedSizeSeedLeechHealth
1 Year+ - in Movies757.12 MB1,3621,181
1 Year+ - in Movies755.53 MB1,0701,153
Verified torrent
1 Year+ - in Movies755.11 MB21
Verified torrent
1 Year+ - in Movies992.26 MB10
Verified torrent
1 Year+ - in Movies725.93 MB13

Comments (2 Comments)




HVentron

Added 1 Year+
poor quality v/5 a/5
Robmalwin
» Voted Good Voted Good for this torrent for this torrent

Added 1 Year+
looks like cam to me but thanks for the upload
Please login or create a FREE account to post comments

Latest Searches

| CELEBRITY WITH BIG BOOBS | pmv amateur | First Time Auditions 26 2013 DVDRip | BREAKING BAD SEASON 1 full season | Armageddon hero | golden honey | book catalog | cfnm not on | The Killers Dont Waste Your Wishes | Adria Rae Dirty Anal |