Quick Browse
Movies
TV shows
Music
Games
Applications
Anime
Other
Facebook
Advertising

Friends
Torrent Download
Movie4u
1337x.to
Torrent Downloads




Verified torrent Good Deeds 2012 SCR XViD-26k


    Seeders : 1      Leechers : 0
Hash :D0C057AFAE720B56946CC47090392E7AEA740474
Added :1 Year+ by memory100Verified torrent uploader in Movies
Size :1.33 GB
Stream :WATCH ONLINE @ Movie4u


Good Deeds 2012 SCR XViD-26k
Free and Fast Download with Usenet 300GB+ free







Trackers List

Tracker NameLast CheckStatusSeedersLeechers




Torrent File Content (13 files)


Good Deeds 2012 SCR XViD-26k
     1.png -
229.01 KB

     2.png -
200.73 KB

     26k nfo.nfo -
3.95 KB

     3.png -
243.97 KB

     4.png -
199.36 KB

     att-networks.com.txt -
39 bytes

     Good Deeds 2012 SCR XViD-26k.avi -
1.33 GB

     Good Deeds 2012 SCR XViD-26k.jpg -
124.24 KB

     HDSceneRG.txt -
115 bytes

     sceneunderground.org.txt -
77 bytes

     Torrent downloaded from Demonoid.me.txt -
46 bytes

     Torrent downloaded from rarbg.com.txt.txt -
0 bytes

     YouTube Latest Releases And Archive.txt -
80 bytes



Description



http://img819.imageshack.us/img819/7941/gooddeed.jpg

[code]

Good Deeds 2012 SCR XViD-26k

http://www.imdb.com/title/tt1885265/

Plot:
Businessman Wesley Deeds is jolted out of his scripted life when he meets Lindsey,
a single mother who works on the cleaning crew in his office building.

Sources - Good Deeds 2012 SCR XViD-KiNGDOM....Thanks :P

Format : AVI
Format/Info : Audio Video Interleave
File size : 1.33 GiB
Duration : 1h 50mn
Overall bit rate : 1 720 Kbps
Writing application : VirtualDubMod 1.5.10.2 (build 2540/release)
Writing library : VirtualDub build 32839/release

Video
ID : 0
Format : MPEG-4 Visual
Format profile : Advanced [email protected]
Format settings, BVOP : 2
Format settings, QPel : No
Format settings, GMC : No warppoints
Format settings, Matrix : Default (H.263)
Muxing mode : Packed bitstream
Codec ID : XVID
Codec ID/Hint : XviD
Duration : 1h 50mn
Bit rate : 1 580 Kbps
Width : 720 pixels
Height : 304 pixels
Display aspect ratio : 2.35:1
Frame rate : 29.970 fps
Color space : YUV
Chroma subsampling : 4:2:0
Bit depth : 8 bits
Scan type : Progressive
Compression mode : Lossy
Bits/(Pixel*Frame) : 0.241
Stream size : 1.22 GiB (92%)
Writing library : XviD 1.2.1 (UTC 2008-12-04)

Audio
ID : 1
Format : MPEG Audio
Format version : Version 1
Format profile : Layer 3
Mode : Joint stereo
Mode extension : MS Stereo
Codec ID : 55
Codec ID/Hint : MP3
Duration : 1h 50mn
Bit rate mode : Constant
Bit rate : 128 Kbps
Channel(s) : 2 channels
Sampling rate : 48.0 KHz
Compression mode : Lossy
Delay relative to video : 6ms
Stream size : 101 MiB (7%)
Alignment : Split accross interleaves
Interleave, duration : 33 ms (1.00 video frame)
Interleave, preload duration : 500 ms
Writing library : LAME3.99.4ªªªªªªªªªa



Notes -

Source was ok.. needed sum work.. degrained it, denoised it, adjust RGB slightly, levels,
contrast and sharpened... then cut the last 10 minutes off of it due to it repeating
the begin of the movie again.... came out nice... enjoy

[/code]

Screens:
http://i.imgur.com/EucYm.png

http://i.imgur.com/HiIiC.png

http://img688.imageshack.us/img688/2053/gooddeeds2012scrxvid26k.jpg

http://img32.imageshack.us/img32/38/11689881.png

http://img26.imageshack.us/img26/2793/21962176.png


Alternative screens:
http://www.hotimg.com/image/jwYAG5M
http://dippic.com/8m6rte694iui
http://imgdepot.org/show/20120306/2/133192_3.png
http://www.imageporter.com/x7jedw0v4tgj/4.png

Greetz:
Xtreme Encode|FYA|ILLUMANTI|CM8|RX|VISI​ON|HDSCENE|xTriLL|DTRG|CRYS|REMIX​HD|BIDA|RX|REFILL|INSPiRAL|SIC|
|HOPE|Anonymous|GooN|miRaGe
To all the people who have helped me you know who you are

Anything to offer email us @: [email protected]


http://img851.imageshack.us/img851/5503/26ks.jpg

Thank you smallz for banner!

Related torrents

Torrent NameAddedSizeSeedLeechHealth
1 Year+ - in Movies1022.57 MB00
1 Year+ - in Movies109.65 KB00
1 Year+ - in Movies357.72 MB00
1 Year+ - in Movies1.74 GB01
1 Year+ - in Movies1.46 GB11

Comments (0 Comments)




Please login or create a FREE account to post comments

Latest Searches

| CELEBRITY WITH BIG BOOBS | pmv amateur | First Time Auditions 26 2013 DVDRip | BREAKING BAD SEASON 1 full season | Armageddon hero | golden honey | book catalog | cfnm not on | The Killers Dont Waste Your Wishes | Adria Rae Dirty Anal |