Quick Browse
Movies
TV shows
Music
Games
Applications
Anime
Other

Donate and Support

Friends
Torrents.me
Torrent Download
Free Movies
1337x
RARBG
Torrent Downloads

Verified torrent Goosebumps - Piano Lessons Can Be Murder[1995]TVRip-LW-{HKRG}


    Seeders : 0      Leechers : 0
Hash :2ABC81382A96CA049D1EB3D39CC18D1BE949C091
Added :1 Year+ by XoLWoXVerified torrent uploader in TV shows
Size :290.38 MB
Stream :Watch Full Movies Online @ Movie4u
Share :


Goosebumps - Piano Lessons Can Be Murder[1995]TVRip-LW-{HKRG}
Anonymous and Direct Download 300GB+ free







Warning! Do not Download Torrents Without a VPN!
Your IP Address is .   And Location is
Your Internet Provider and Government can track your torrent Activity!  Hide your IP ADDRESS with a VPN!
We Strongly Recommend Using SpyOFF Torrent VPN to Anonymize your Torrenting. It's FREE For 15 Days!

Note :

Please Update (Trackers Info) Before Downloading Torrents to See Updated Seeders And Leechers for Batter Download Speed.

Trackers List

Tracker NameLast CheckStatusSeedersLeechers




Torrent File Content (1 file)


Goosebumps - Piano Lessons Can Be Murder[1995]TVRip-LW-{HKRG}
     Piano Lessons Can Be Murder.avi -
290.38 MB



Description



http://imgr.us/images/vzpu3io8te7e62c9jdpk.png

-------------------------------------------------
http://imgr.us/images/q9oy4odn5053an1o867h.png

-------------------------------------------------
File Name : Piano Lessons Can Be Murder
Type : TV Series
Format : AVI
File Size : 290 MB
Duration : 00:21:09
Language : English
Source : TV
Episode : 8
Air Date : Friday December 8, 1995
Subtitles : None
Genre : Family | Fantasy | Horror
IMDB Link : http://www.imdb.com/title/tt0591358/
-------------------------------------------------
http://imgr.us/images/a14k8fabur54ad5gubq4.png

-------------------------------------------------
Format : MPEG-4 Visual
Format profile : Advanced Simple@L5
Format settings, BVOP : 1
Format settings, QPel : No
Format settings, GMC : No warppoints
Format settings, Matrix : Custom
Codec ID : XVID
Codec ID/Hint : XviD
Duration : 21mn 9s
Bit rate : 1 655 Kbps
Width : 720 pixels
Height : 544 pixels
Display aspect ratio : 4:3
Frame rate : 23.976 fps
Color space : YUV
Chroma subsampling : 4:2:0
Bit depth : 8 bits
Scan type : Progressive
Compression mode : Lossy
Bits/(Pixel*Frame) : 0.176
Stream size : 251 MiB (86%)
Writing library : XviD 58
-------------------------------------------------
http://imgr.us/images/2s0oz5wrpxo5em2q6m.png

-------------------------------------------------
Format : MPEG Audio
Format version : Version 1
Format profile : Layer 2
Codec ID : 50
Duration : 21mn 9s
Bit rate mode : Constant
Bit rate : 256 Kbps
Channel(s) : 2 channels
Sampling rate : 48.0 KHz
Compression mode : Lossy
Delay relative to video : 48ms
Stream size : 38.7 MiB (13%)
Alignment : Aligned on interleaves
Interleave, duration : 83 ms (2.00 video frames)
Interleave, preload duration : 504 ms
-------------------------------------------------
http://imgr.us/images/bnnacqs56aalgsuyqma.png

-------------------------------------------------
Jerry Hawkins' family has just moved into a new house,
with a new neighborhood and school following it. Jerry,
an imaginative young man, is playing a game with himself
when his father begins to move boxes into the basement,
and they then find a dusty old piano. Jerry doesn't really
want to take lessons, but decides it'd be kinda cool after
he tells a girl that he takes lessons, so his parents take
him to Dr. Shreek's School of Music. However, unknown to
Jerry and his family, the school, and the piano have a very
ghastly secret...
-------------------------------------------------
http://imgr.us/images/7clcz7gn5qp6df9a7b1t.png

http://imgr.us/images/u3qc6jruhm3cydizb9yy.png

http://imgr.us/images/a7fuvxm1719s7w0m6ekh.png

http://imgr.us/images/dzahfd7c9b5ciuvzn8.png

http://imgr.us/images/394ddz7qc7h0qk5mb3q.png

http://imgr.us/images/mdlitbiesmgub6uv2pt2.jpg

Related torrents

Torrent NameAddedSizeSeedLeechHealth
Verified torrent
1 Year+ - in TV shows298.12 MB00
1 Year+ - in Movies1.08 GB00
1 Year+ - in Other204.34 KB24
1 Year+ - in TV shows145.28 MB00
1 Year+ - in Movies655.32 MB00

Comments (0 Comments)




Please login or create a FREE account to post comments

Latest Searches

| Tom and Jerry The Golden Collection Volume One 1080p Bluray | arrow brave and bold | wwe monday night raw 2017 6 | the closer i get alabama | 1982 latino | brattysis cadey mercury | stange | No Offence S01E07 HDTV x264 RiVER | Girlfriends of 2016 | BRAZZERS Pornstars Like It Big Peta Jensen |