Quick Browse
Movies
TV shows
Music
Games
Applications
Anime
Other

Donate and Support

Friends
Torrents.me
Torrent Download
Free Movies
1337x
RARBG
Torrent Downloads

Verified torrent Goosebumps - You Cant Scare Me[1996]TVRip-LW-{HKRG}


    Seeders : 0      Leechers : 0
Hash :E1286106E9B4C8672A9CBB5D9F1775DEC863EDA4
Added :1 Year+ by XoLWoXVerified torrent uploader in TV shows
Size :298.12 MB
Stream :Watch Full Movies Online @ Movie4u
Share :


Goosebumps - You Cant Scare Me[1996]TVRip-LW-{HKRG}
Anonymous and Direct Download 300GB+ free







Warning! Do not Download Torrents Without a VPN!
Your IP Address is .   And Location is
Your Internet Provider and Government can track your torrent Activity!  Hide your IP ADDRESS with a VPN!
We Strongly Recommend Using SpyOFF Torrent VPN to Anonymize your Torrenting. It's FREE For 15 Days!

Note :

Please Update (Trackers Info) Before Downloading Torrents to See Updated Seeders And Leechers for Batter Download Speed.

Trackers List

Tracker NameLast CheckStatusSeedersLeechers




Torrent File Content (1 file)


Goosebumps - You Cant Scare Me[1996]TVRip-LW-{HKRG}
     You Cant Scare Me.avi -
298.12 MB



Description



http://imgr.us/images/no8me27ebccqni021jp.png

-------------------------------------------------
http://imgr.us/images/q9oy4odn5053an1o867h.png

-------------------------------------------------
File Name : You Cant Scare Me
Type : TV Series
Format : AVI
File Size : 298 MB
Duration : 00:20:39
Language : English
Source : TV
-------------------------------------------------
Season : 2
Episode : 7
-------------------------------------------------
Air Date : Saturday October 5, 1996
Subtitles : None
Genre : Family | Fantasy | Horror
IMDB Link : http://www.imdb.com/title/tt0591390/
-------------------------------------------------
http://imgr.us/images/a14k8fabur54ad5gubq4.png

-------------------------------------------------
Format : MPEG-4 Visual
Format profile : Advanced [email protected]
Format settings, BVOP : 1
Format settings, QPel : No
Format settings, GMC : No warppoints
Format settings, Matrix : Custom
Codec ID : XVID
Codec ID/Hint : XviD
Duration : 20mn 39s
Bit rate : 1 755 Kbps
Width : 720 pixels
Height : 544 pixels
Display aspect ratio : 4:3
Frame rate : 23.976 fps
Color space : YUV
Chroma subsampling : 4:2:0
Bit depth : 8 bits
Scan type : Progressive
Compression mode : Lossy
Bits/(Pixel*Frame) : 0.187
Stream size : 259 MiB (87%)
Writing library : XviD 58
-------------------------------------------------
http://imgr.us/images/2s0oz5wrpxo5em2q6m.png

-------------------------------------------------
Format : MPEG Audio
Format version : Version 1
Format profile : Layer 2
Codec ID : 50
Duration : 20mn 39s
Bit rate mode : Constant
Bit rate : 256 Kbps
Channel(s) : 2 channels
Sampling rate : 48.0 KHz
Compression mode : Lossy
Delay relative to video : 48ms
Stream size : 37.8 MiB (13%)
Alignment : Aligned on interleaves
Interleave, duration : 83 ms (2.00 video frames)
Interleave, preload duration : 504 ms
-------------------------------------------------
http://imgr.us/images/bnnacqs56aalgsuyqma.png

-------------------------------------------------
Courtney is a total showoff. She thinks she's so brave
and she's always making Eddie and his friends look like
wimps. But now Eddie's decided he's had enough. He's
going to scare Courtney once and for all. And he's come
up with the perfect plan. He's going to lure Courtney
down to Muddy Creek. Because Eddie knows Courtney believes
in that silly rumor about the mud Monsters that live in
the creek. Too bad Eddie doesn't believe the rumor. Because
it just might be true.
-------------------------------------------------
http://imgr.us/images/7clcz7gn5qp6df9a7b1t.png

http://imgr.us/images/6yxhscv0xsylnstmgooo.png

http://imgr.us/images/ffyjiub08crkq9o9ijlj.png

http://imgr.us/images/zvfioe1wjfrm8lsdbh1w.png

http://imgr.us/images/yszf4k7hqustrtf7z5.png

http://imgr.us/images/ywiw2i50yeawwir91xc5.jpg

Related torrents

Torrent NameAddedSizeSeedLeechHealth
1 Year+ - in Movies32.69 MB00
Verified torrent
1 Year+ - in TV shows290.38 MB00
15 days ago - in Music88.4 MB00
10 months ago - in Music3.85 GB00
1 Year+ - in Other162.71 MB00

Comments (0 Comments)




Please login or create a FREE account to post comments

Latest Searches

| Gucci Mane Tone It Down Ft Chris Brown | BabyGotBoobs Keisha Grey Breast Made Plans NEW 16 June 2017 | Robert Miles Dreamland Remastered | Antonio Ross Apolonia Lapiedra | harry potter collection mp4 | Mame plus 6000 roms | genius E10 x265 | movie 2017 dvd | maximum stretching | my aunts a cougarwebripvsex |