Quick Browse
Movies
TV shows
Music
Games
Applications
Anime
Other
Facebook
Advertising

Friends
Torrent Download
Movie4u
1337x.to
Torrent Downloads




Green Day 21 Century BreaKdown][Flac][Art][Info][Hectorbusinspector][h33t]


    Seeders : 0      Leechers : 1

Trackers List

Tracker NameLast CheckStatusSeedersLeechers




Torrent File Content (23 files)


Green Day 21 Century BreaKdown][Flac][Art][Info][Hectorbusinspector][h33t]
    21st Century Breakdown
          Album Art/21 Century breakDown.cbr -
8.25 MB

          Album Art/Info.txt -
63 bytes

          Green Day - 21st Century Breakdown - 01. Song Of The Century.flac -
2.75 MB

          Green Day - 21st Century Breakdown - 02. 21st Century Breakdown.flac -
38.34 MB

          Green Day - 21st Century Breakdown - 03. Know Your Enemy.flac -
23.93 MB

          Green Day - 21st Century Breakdown - 04. ┬íViva La Gloria!.flac -
24.95 MB

          Green Day - 21st Century Breakdown - 05. Before The Lobotomy.flac -
32 MB

          Green Day - 21st Century Breakdown - 06. Christian's Inferno.flac -
23.1 MB

          Green Day - 21st Century Breakdown - 07. Last Night On Earth.flac -
26.36 MB

          Green Day - 21st Century Breakdown - 08. East Jesus Nowhere.flac -
32.52 MB

          Green Day - 21st Century Breakdown - 09. Peacemaker.flac -
25.67 MB

          Green Day - 21st Century Breakdown - 10. Last Of The American Girls.flac -
27.32 MB

          Green Day - 21st Century Breakdown - 11. Murder City.flac -
22.4 MB

          Green Day - 21st Century Breakdown - 12. ┬┐Viva La Gloria_ (Little Girl).flac -
26.34 MB

          Green Day - 21st Century Breakdown - 13. Restless Heart Syndrome.flac -
30.65 MB

          Green Day - 21st Century Breakdown - 14. Horseshoes And Handgrenades.flac -
25.51 MB

          Green Day - 21st Century Breakdown - 15. The Static Age.flac -
32.61 MB

          Green Day - 21st Century Breakdown - 16. 21 Guns.flac -
36.54 MB

          Green Day - 21st Century Breakdown - 17. American Eulogy.flac -
31.74 MB

          Green Day - 21st Century Breakdown - 18. See The Light.flac -
31.1 MB

     information.txt -
28.59 KB

     introduction to us, we are not pirates.txt -
4.55 KB

     tracked_by_h33t_com.txt -
23 bytes



Description



Green Day's '21st Century Breakdown'


Perhaps the only thing more unlikely than releasing a rock opera in 2009 is that it’s a rock opera written and recorded by Green Day.
But such is the case with “21st Century Breakdown” (Reprise), which arrives in stores May 15.

Green Day is that rare beast: a band that still sells lots of albums in an MP3-obsessed, iPod-shuffle era. And rarer still, the band
makes albums that demand to be heard as a whole: a collection of conceptually linked songs that is greater than the sum of its parts.

The Northern California trio’s
previous album, the 2004 release “American Idiot,” was a song cycle about life during war time.
In the grand punk tradition of Reagan-era stalwarts the Minutemen, the Meat Puppets and Husker Du, Green Day
succeeded in making an album that spoke to and about its generation at a time of political anxiety, fear and anger.
Unlike those bands, Green Day was an unmitigated hit. During a decade when CD sales plummeted, “American Idiot” sold nearly 6 million
copies domestically and 12 million worldwide.

Now comes the even more ambitious “21st Century Breakdown,”
nothing less than a three-part rock opera that traces the story of two characters, Christian
and Gloria, the yin and yang of singer-guitarist Billie Joe Armstrong’s personality.
Christian is a rabble-rouser with his finger hovering on the self-destruct button. Gloria is an idealist with hopes of remaking the world.


The album would be a manifesto for a generation trying to make a sense of overseas wars and hometown recession.
Thankfully, Armstrong avoids sermonizing. But he does have a few things to get off his chest, and he and his band express themselves with do-or-die boldness.

In Green Day’s early days, Armstrong saw many of the same problems, and rolled his eyes. He’s a product of the early ‘90s pop-punk brigade, a generation of
disenfranchised suburbanites who broadcast their discontent in pithy three-chord anthems. They were bored and stoned; they reacted
to the world around them with a shrug of the shoulders, a smirk and a series of one-fingered salutes. Green Day harnessed that disenchantment
on the 1994 landmark “Dookie,” a 15-million-selling juggernaut of bratty black humor.

As the band aged, it started to recycle itself and sales dropped. No great sin; plenty
of bands struggle to maintain relevance. But a funny thing happened on the way to the nostalgia circuit with “American Idiot.”
As the band members turned past 30 and began settling down with families, they got not just older but better.
Armstrong raised his aim as a songwriter, and bassist Mike Dirnt and drummer Tre Cool kept pace. The trio are omnivorous music fans, and as their range and interests broadened, their music did too.

Green Day reinvented itself with “American Idiot”; the album’s seriousness and ambition would’ve been unimaginable coming from the band that made “Dookie.”
“21st Century Breakdown” aims even higher, a state of the disunion address delivered by two kids wandering through a landscape where war rages, jobs are scarce and cities slowly disintegrate. At times Armstrong’s earnestness sounds like a Springsteen parody (“She puts her makeup on/like graffiti on the walls of the heartland”); he hasn’t quite mastered the art of the telling detail the way someone like the Hold Steady’s Craig Finn has. And the humor of the “Dookie” era is missed. In its place is a far richer and more varied brand of musical expression.
Armstrong addresses his own generation (“born into Nixon”) and the next, as represented by his oldest son’s anticipated
high-school graduating class (“the class of 13”), but he doesn’t pretend to have answers. He ventures only one piece of advice: “Silence is the enemy/Against your urgency,”
he brays in “Know your Enemy.” In other words, participate or perish.
That sums up the tone of the album, and presents the biggest difference between the new Green Day
and the old, the one that celebrated slacker indifference on “Dookie” and the one that challenges a
generation of listeners to engage with the world around them on “21st Century Breakdown.”

One thing hasn’t changed. The music rocks, only now the snotty, faux-British accent has been replaced by a full-throated cry
that owes as much to classic rock as it does to basement punk.
Tre Cool has always been the band’s secret weapon, his unrelenting drumming the driving force in songs that push higher and harder.
But the dynamics have sharpened, the contrasts become more vivid, thanks to the expansive production of Butch Vig (who has worked with Nirvana and Smashing Pumpkins).
Now there are intimations of Brecht-Weill cabaret (“Viva La Gloria”) and John Lennon-esque piano ballads (“Last Night on Earth”).
Strings and timpani embellish the arrangements, and keyboards provide a breather between guitar-based assaults.

The exuberant pop-punk of old has morphed into epic Who-style stadium-rock, with thundering drums underpinning windmill chords and shout-from-the-rooftops choruses.
Rock operas demand nothing less, and Green Day delivers.
****************************************************************************
****************************************************************************
01. Song Of The Century 0:57


Act I - Heroes And Cons

02. 21st Century Breakdown 5:09
03. Know Your Enemy 3:10
04. ¡Viva La Gloria! 3:30
05. Before The Lobotomy 4:37
06. Christian's Inferno 3:07
07. Last Night On Earth 3:56

Act II - Charlatans And Saints

08. East Jesus Nowhere 4:34
09. Peacemaker 3:24
10. Last Of American Girls 3:51
11. Murder City 2:54
12. ¿Viva La Gloria? (Little Girl) 3:47
13. Restless Heart Syndrome 4:21

Act III - Horseshoes And Handgrenades

14. Horseshoes And Handgrenades 3:14
15. The Static Age 4:16
16. 21 Guns 5:21
17. American Eulogy (Mass Hysteria/Modern World) 4:26
18. See The Light 4:35
***************************************************************************
General
Complete name : Green Day 21 Century BreaKdown][Flac][Art][Info][Hectorbusinspector][h33t]
21st Century BreakdownGreen Day - 21st Century Breakdown - 01. Song Of The Century.flac
Format : FLAC
Format/Info : Free Lossless Audio Codec
File size : 2.75 MiB
Duration : 57s 833ms
Overall bit rate : 399 Kbps
Album : 21st Century Breakdown
Track name : Song Of The Century
Track name/Position : 1
Performer : Green Day
Genre : Rock
Recorded date : 2009

Audio
Format : FLAC
Format/Info : Free Lossless Audio Codec
Duration : 57s 833ms
Bit rate mode : Variable
Bit rate : 399 Kbps
Channel(s) : 2 channels
Sampling rate : 44.1 KHz
Resolution : 16 bits
Stream size : 2.75 MiB (100%)
Writing library : libFLAC 1.2.1 (UTC 2007-09-17)

General
Complete name : Green Day 21 Century BreaKdown][Flac][Art][Info][Hectorbusinspector][h33t]
21st Century BreakdownGreen Day - 21st Century Breakdown - 02. 21st Century Breakdown.flac
Format : FLAC
Format/Info : Free Lossless Audio Codec
File size : 38.3 MiB
Duration : 5mn 9s
Overall bit rate : 1 040 Kbps
Album : 21st Century Breakdown
Track name : 21st Century Breakdown
Track name/Position : 2
Performer : Green Day
Genre : Rock
Recorded date : 2009

Audio
Format : FLAC
Format/Info : Free Lossless Audio Codec
Duration : 5mn 9s
Bit rate mode : Variable
Bit rate : 1 040 Kbps
Channel(s) : 2 channels
Sampling rate : 44.1 KHz
Resolution : 16 bits
Stream size : 38.3 MiB (100%)
Writing library : libFLAC 1.2.1 (UTC 2007-09-17)

General
Complete name : Green Day 21 Century BreaKdown][Flac][Art][Info][Hectorbusinspector][h33t]
21st Century BreakdownGreen Day - 21st Century Breakdown - 03. Know Your Enemy.flac
Format : FLAC
Format/Info : Free Lossless Audio Codec
File size : 23.9 MiB
Duration : 3mn 10s
Overall bit rate : 1 055 Kbps
Album : 21st Century Breakdown
Track name : Know Your Enemy
Track name/Position : 3
Performer : Green Day
Genre : Rock
Recorded date : 2009

Audio
Format : FLAC
Format/Info : Free Lossless Audio Codec
Duration : 3mn 10s
Bit rate mode : Variable
Bit rate : 1 055 Kbps
Channel(s) : 2 channels
Sampling rate : 44.1 KHz
Resolution : 16 bits
Stream size : 23.9 MiB (100%)
Writing library : libFLAC 1.2.1 (UTC 2007-09-17)

General
Complete name : Green Day 21 Century BreaKdown][Flac][Art][Info][Hectorbusinspector][h33t]
21st Century BreakdownGreen Day - 21st Century Breakdown - 04. ¡Viva La Gloria!.flac
Format : FLAC
Format/Info : Free Lossless Audio Codec
File size : 24.9 MiB
Duration : 3mn 30s
Overall bit rate : 994 Kbps
Album : 21st Century Breakdown
Track name : ¡Viva La Gloria!
Track name/Position : 4
Performer : Green Day
Genre : Rock
Recorded date : 2009

Audio
Format : FLAC
Format/Info : Free Lossless Audio Codec
Duration : 3mn 30s
Bit rate mode : Variable
Bit rate : 994 Kbps
Channel(s) : 2 channels
Sampling rate : 44.1 KHz
Resolution : 16 bits
Stream size : 24.9 MiB (100%)
Writing library : libFLAC 1.2.1 (UTC 2007-09-17)

General
Complete name : Green Day 21 Century BreaKdown][Flac][Art][Info][Hectorbusinspector][h33t]
21st Century BreakdownGreen Day - 21st Century Breakdown - 05. Before The Lobotomy.flac
Format : FLAC
Format/Info : Free Lossless Audio Codec
File size : 32.0 MiB
Duration : 4mn 37s
Overall bit rate : 969 Kbps
Album : 21st Century Breakdown
Track name : Before The Lobotomy
Track name/Position : 5
Performer : Green Day
Genre : Rock
Recorded date : 2009

Audio
Format : FLAC
Format/Info : Free Lossless Audio Codec
Duration : 4mn 37s
Bit rate mode : Variable
Bit rate : 969 Kbps
Channel(s) : 2 channels
Sampling rate : 44.1 KHz
Resolution : 16 bits
Stream size : 32.0 MiB (100%)
Writing library : libFLAC 1.2.1 (UTC 2007-09-17)

General
Complete name : Green Day 21 Century BreaKdown][Flac][Art][Info][Hectorbusinspector][h33t]
21st Century BreakdownGreen Day - 21st Century Breakdown - 06. Christian's Inferno.flac
Format : FLAC
Format/Info : Free Lossless Audio Codec
File size : 23.1 MiB
Duration : 3mn 7s
Overall bit rate : 1 036 Kbps
Album : 21st Century Breakdown
Track name : Christian's Inferno
Track name/Position : 6
Performer : Green Day
Genre : Rock
Recorded date : 2009

Audio
Format : FLAC
Format/Info : Free Lossless Audio Codec
Duration : 3mn 7s
Bit rate mode : Variable
Bit rate : 1 036 Kbps
Channel(s) : 2 channels
Sampling rate : 44.1 KHz
Resolution : 16 bits
Stream size : 23.1 MiB (100%)
Writing library : libFLAC 1.2.1 (UTC 2007-09-17)

General
Complete name : Green Day 21 Century BreaKdown][Flac][Art][Info][Hectorbusinspector][h33t]
21st Century BreakdownGreen Day - 21st Century Breakdown - 07. Last Night On Earth.flac
Format : FLAC
Format/Info : Free Lossless Audio Codec
File size : 26.4 MiB
Duration : 3mn 56s
Overall bit rate : 935 Kbps
Album : 21st Century Breakdown
Track name : Last Night On Earth
Track name/Position : 7
Performer : Green Day
Genre : Rock
Recorded date : 2009

Audio
Format : FLAC
Format/Info : Free Lossless Audio Codec
Duration : 3mn 56s
Bit rate mode : Variable
Bit rate : 934 Kbps
Channel(s) : 2 channels
Sampling rate : 44.1 KHz
Resolution : 16 bits
Stream size : 26.4 MiB (100%)
Writing library : libFLAC 1.2.1 (UTC 2007-09-17)

General
Complete name : Green Day 21 Century BreaKdown][Flac][Art][Info][Hectorbusinspector][h33t]
21st Century BreakdownGreen Day - 21st Century Breakdown - 08. East Jesus Nowhere.flac
Format : FLAC
Format/Info : Free Lossless Audio Codec
File size : 32.5 MiB
Duration : 4mn 34s
Overall bit rate : 993 Kbps
Album : 21st Century Breakdown
Track name : East Jesus Nowhere
Track name/Position : 8
Performer : Green Day
Genre : Rock
Recorded date : 2009

Audio
Format : FLAC
Format/Info : Free Lossless Audio Codec
Duration : 4mn 34s
Bit rate mode : Variable
Bit rate : 992 Kbps
Channel(s) : 2 channels
Sampling rate : 44.1 KHz
Resolution : 16 bits
Stream size : 32.5 MiB (100%)
Writing library : libFLAC 1.2.1 (UTC 2007-09-17)

General
Complete name : Green Day 21 Century BreaKdown][Flac][Art][Info][Hectorbusinspector][h33t]
21st Century BreakdownGreen Day - 21st Century Breakdown - 09. Peacemaker.flac
Format : FLAC
Format/Info : Free Lossless Audio Codec
File size : 25.7 MiB
Duration : 3mn 24s
Overall bit rate : 1 055 Kbps
Album : 21st Century Breakdown
Track name : Peacemaker
Track name/Position : 9
Performer : Green Day
Genre : Rock
Recorded date : 2009

Audio
Format : FLAC
Format/Info : Free Lossless Audio Codec
Duration : 3mn 24s
Bit rate mode : Variable
Bit rate : 1 054 Kbps
Channel(s) : 2 channels
Sampling rate : 44.1 KHz
Resolution : 16 bits
Stream size : 25.7 MiB (100%)
Writing library : libFLAC 1.2.1 (UTC 2007-09-17)

General
Complete name : Green Day 21 Century BreaKdown][Flac][Art][Info][Hectorbusinspector][h33t]
21st Century BreakdownGreen Day - 21st Century Breakdown - 10. Last Of The American Girls.flac
Format : FLAC
Format/Info : Free Lossless Audio Codec
File size : 27.3 MiB
Duration : 3mn 51s
Overall bit rate : 992 Kbps
Album : 21st Century Breakdown
Track name : Last Of The American Girls
Track name/Position : 10
Performer : Green Day
Genre : Rock
Recorded date : 2009

Audio
Format : FLAC
Format/Info : Free Lossless Audio Codec
Duration : 3mn 51s
Bit rate mode : Variable
Bit rate : 992 Kbps
Channel(s) : 2 channels
Sampling rate : 44.1 KHz
Resolution : 16 bits
Stream size : 27.3 MiB (100%)
Writing library : libFLAC 1.2.1 (UTC 2007-09-17)

General
Complete name : Green Day 21 Century BreaKdown][Flac][Art][Info][Hectorbusinspector][h33t]
21st Century BreakdownGreen Day - 21st Century Breakdown - 11. Murder City.flac
Format : FLAC
Format/Info : Free Lossless Audio Codec
File size : 22.4 MiB
Duration : 2mn 54s
Overall bit rate : 1 077 Kbps
Album : 21st Century Breakdown
Track name : Murder City
Track name/Position : 11
Performer : Green Day
Genre : Rock
Recorded date : 2009

Audio
Format : FLAC
Format/Info : Free Lossless Audio Codec
Duration : 2mn 54s
Bit rate mode : Variable
Bit rate : 1 077 Kbps
Channel(s) : 2 channels
Sampling rate : 44.1 KHz
Resolution : 16 bits
Stream size : 22.4 MiB (100%)
Writing library : libFLAC 1.2.1 (UTC 2007-09-17)

General
Complete name : Green Day 21 Century BreaKdown][Flac][Art][Info][Hectorbusinspector][h33t]
21st Century BreakdownGreen Day - 21st Century Breakdown - 12. ¿Viva La Gloria_ (Little Girl).flac
Format : FLAC
Format/Info : Free Lossless Audio Codec
File size : 26.3 MiB
Duration : 3mn 47s
Overall bit rate : 970 Kbps
Album : 21st Century Breakdown
Track name : ¿Viva La Gloria? (Little Girl)
Track name/Position : 12
Performer : Green Day
Genre : Rock
Recorded date : 2009

Audio
Format : FLAC
Format/Info : Free Lossless Audio Codec
Duration : 3mn 47s
Bit rate mode : Variable
Bit rate : 970 Kbps
Channel(s) : 2 channels
Sampling rate : 44.1 KHz
Resolution : 16 bits
Stream size : 26.3 MiB (100%)
Writing library : libFLAC 1.2.1 (UTC 2007-09-17)

General
Complete name : Green Day 21 Century BreaKdown][Flac][Art][Info][Hectorbusinspector][h33t]
21st Century BreakdownGreen Day - 21st Century Breakdown - 13. Restless Heart Syndrome.flac
Format : FLAC
Format/Info : Free Lossless Audio Codec
File size : 30.7 MiB
Duration : 4mn 21s
Overall bit rate : 983 Kbps
Album : 21st Century Breakdown
Track name : Restless Heart Syndrome
Track name/Position : 13
Performer : Green Day
Genre : Rock
Recorded date : 2009

Audio
Format : FLAC
Format/Info : Free Lossless Audio Codec
Duration : 4mn 21s
Bit rate mode : Variable
Bit rate : 983 Kbps
Channel(s) : 2 channels
Sampling rate : 44.1 KHz
Resolution : 16 bits
Stream size : 30.6 MiB (100%)
Writing library : libFLAC 1.2.1 (UTC 2007-09-17)

General
Complete name : Green Day 21 Century BreaKdown][Flac][Art][Info][Hectorbusinspector][h33t]
21st Century BreakdownGreen Day - 21st Century Breakdown - 14. Horseshoes And Handgrenades.flac
Format : FLAC
Format/Info : Free Lossless Audio Codec
File size : 25.5 MiB
Duration : 3mn 14s
Overall bit rate : 1 102 Kbps
Album : 21st Century Breakdown
Track name : Horseshoes And Handgrenades
Track name/Position : 14
Performer : Green Day
Genre : Rock
Recorded date : 2009

Audio
Format : FLAC
Format/Info : Free Lossless Audio Codec
Duration : 3mn 14s
Bit rate mode : Variable
Bit rate : 1 102 Kbps
Channel(s) : 2 channels
Sampling rate : 44.1 KHz
Resolution : 16 bits
Stream size : 25.5 MiB (100%)
Writing library : libFLAC 1.2.1 (UTC 2007-09-17)

General
Complete name : Green Day 21 Century BreaKdown][Flac][Art][Info][Hectorbusinspector][h33t]
21st Century BreakdownGreen Day - 21st Century Breakdown - 15. The Static Age.flac
Format : FLAC
Format/Info : Free Lossless Audio Codec
File size : 32.6 MiB
Duration : 4mn 16s
Overall bit rate : 1 066 Kbps
Album : 21st Century Breakdown
Track name : The Static Age
Track name/Position : 15
Performer : Green Day
Genre : Rock
Recorded date : 2009

Audio
Format : FLAC
Format/Info : Free Lossless Audio Codec
Duration : 4mn 16s
Bit rate mode : Variable
Bit rate : 1 065 Kbps
Channel(s) : 2 channels
Sampling rate : 44.1 KHz
Resolution : 16 bits
Stream size : 32.6 MiB (100%)
Writing library : libFLAC 1.2.1 (UTC 2007-09-17)

General
Complete name : Green Day 21 Century BreaKdown][Flac][Art][Info][Hectorbusinspector][h33t]
21st Century BreakdownGreen Day - 21st Century Breakdown - 16. 21 Guns.flac
Format : FLAC
Format/Info : Free Lossless Audio Codec
File size : 36.5 MiB
Duration : 5mn 21s
Overall bit rate : 954 Kbps
Album : 21st Century Breakdown
Track name : 21 Guns
Track name/Position : 16
Performer : Green Day
Genre : Rock
Recorded date : 2009

Audio
Format : FLAC
Format/Info : Free Lossless Audio Codec
Duration : 5mn 21s
Bit rate mode : Variable
Bit rate : 954 Kbps
Channel(s) : 2 channels
Sampling rate : 44.1 KHz
Resolution : 16 bits
Stream size : 36.5 MiB (100%)
Writing library : libFLAC 1.2.1 (UTC 2007-09-17)

General
Complete name : Green Day 21 Century BreaKdown][Flac][Art][Info][Hectorbusinspector][h33t]
21st Century BreakdownGreen Day - 21st Century Breakdown - 17. American Eulogy.flac
Format : FLAC
Format/Info : Free Lossless Audio Codec
File size : 31.7 MiB
Duration : 4mn 26s
Overall bit rate : 1 000 Kbps
Album : 21st Century Breakdown
Track name : American Eulogy
Track name/Position : 17
Performer : Green Day
Genre : Rock
Recorded date : 2009

Audio
Format : FLAC
Format/Info : Free Lossless Audio Codec
Duration : 4mn 26s
Bit rate mode : Variable
Bit rate : 1 000 Kbps
Channel(s) : 2 channels
Sampling rate : 44.1 KHz
Resolution : 16 bits
Stream size : 31.7 MiB (100%)
Writing library : libFLAC 1.2.1 (UTC 2007-09-17)

General
Complete name : Green Day 21 Century BreaKdown][Flac][Art][Info][Hectorbusinspector][h33t]
21st Century BreakdownGreen Day - 21st Century Breakdown - 18. See The Light.flac
Format : FLAC
Format/Info : Free Lossless Audio Codec
File size : 31.1 MiB
Duration : 4mn 35s
Overall bit rate : 946 Kbps
Album : 21st Century Breakdown
Track name : See The Light
Track name/Position : 18
Performer : Green Day
Genre : Rock
Recorded date : 2009

Audio
Format : FLAC
Format/Info : Free Lossless Audio Codec
Duration : 4mn 35s
Bit rate mode : Variable
Bit rate : 945 Kbps
Channel(s) : 2 channels
Sampling rate : 44.1 KHz
Resolution : 16 bits
Stream size : 31.1 MiB (100%)
Writing library : libFLAC 1.2.1 (UTC 2007-09-17)
*********************************************************************************
Files:Flac.
View Art & Info:Cdisplay:Rsolution:dpi:200.
Please Seed.

Please Enjoy.

H33t.com

Tell A Friend.
!!!!!!!!!!!!!!!!!!!!!!!!!!!!!!!!!!!!!!!!!!!!!!!!!!!!!!!!!!!!!!!!!!!!!!!!!!!!!!!!


Related torrents

Torrent NameAddedSizeSeedLeechHealth
1 Year+ - in Music158.49 MB01
1 Year+ - in Music492.26 MB00
1 Year+ - in Music521.84 MB11
1 Year+ - in Music158.92 MB00
1 Year+ - in Music143.6 MB00

Comments (0 Comments)




Please login or create a FREE account to post comments

Latest Searches

| Drake Too | da brat 1994 funkdafied | ab soul do what thou wilt full album | julia ann eliza jane | tiziano ferro il mestiere | noodle road 3of6 the history of noodle culture 720p bluray x264 | Glorious Day Hymns of Faith casting crowns | superstars xxx of the 80s | 1983 2014 Malayalam DVDRIP | ATB Killer |