Quick Browse
Movies
TV shows
Music
Games
Applications
Anime
Other
Facebook
Advertising

Friends
Torrent Download
Movie4u
1337x.to
Torrent Downloads




Verified torrent Green Lantern (2011) (EXTENDED Cut) BDRip[Hindi]480p Sohi Mastitorrents


    Seeders : 0      Leechers : 0

Trackers List

Tracker NameLast CheckStatusSeedersLeechers
http://bigfoot1942.sektori.org:6969/announce1 Year+success00
http://tracker.nwps.ws:6969/announce1 Year+success00
http://tracker.trackerfix.com/announce1 Year+success00
udp://9.rarbg.com:2710/announce1 Year+success00
udp://tracker.coppersurfer.tk:801 Year+success00
http://torrent.gresille.org/announce1 Year+success00
udp://tracker.openbittorrent.com:80/announce1 Year+success00
udp://open.demonii.com:1337/announce1 Year+success00




Torrent File Content (4 files)


Green Lantern (2011) (EXTENDED Cut) BDRip[Hindi]480p Sohi Mastitorrents
     Catch Us On Facebook.txt -
133 bytes

     Green Lantern (2011) (EXTENDED Cut) BDRip[Hindi]480p Sohi Mastitorrents.avi -
944.56 MB

     www.mastitorrents.com.nfo -
544 bytes

     CATCH US ON FACEBOOK.nfo -
133 bytes



Description



Green Lantern (2011) (EXTENDED Cut) BDRip[Hindi]480p Sohi Mastitorrents

http://makeagif.com/media/9-20-2011/9qDvdz.gif


http://i.imgur.com/azxj2.png


[QUOTE]Format : Matroska
File size : 945 MiB
Duration : 2h 3mn
Overall bit rate : 1 068 Kbps


Video
ID : 1
Format : MPEG-4 Visual
Format profile : Advanced [email protected]
Format settings, BVOP : Yes
Format settings, QPel : No
Format settings, GMC : No warppoints
Format settings, Matrix : Default (H.263)
Duration : 2h 3mn
Bit rate : 855 Kbps
Width : 720 pixels
Height : 304 pixels
Display aspect ratio : 2.35:1
Frame rate : 23.976 fps
Color space : YUV
Chroma subsampling : 4:2:0
Bit depth : 8 bits
Scan type : Progressive
Compression mode : Lossy
Bits/(Pixel*Frame) : 0.163
Stream size : 756 MiB (80%)


Audio
ID : 2
Format : AC-3
Format/Info : Audio Coding 3
Mode extension : CM (complete main)
Muxing mode : Header stripping
Codec ID : A_AC3
Duration : 2h 3mn
Bit rate mode : Constant
Bit rate : 192 Kbps
Channel(s) : 2 channels
Channel positions : Front: L R
Sampling rate : 48.0 KHz
Bit depth : 16 bits
Compression mode : Lossy
Stream size : 170 MiB (18%)

[/QUOTE]

http://i.imgur.com/RWK8z.png

http://i.imgur.com/azxj2.png

http://i.imgur.com/KNgfK.png

http://i.imgur.com/iH0HW.png

http://i.imgur.com/2cre8.png

http://i.imgur.com/3cE1P.png

http://i.imgur.com/7OtWq.png

http://i.imgur.com/zxEAU.png

http://i.imgur.com/07ySv.png


Related torrents

Torrent NameAddedSizeSeedLeechHealth
1 Year+ - in Movies2.62 GB120
1 Year+ - in Movies3.03 GB10
1 Year+ - in Movies2.1 GB16
Last Month - in Movies3.59 GB00
6 months ago - in Movies1.81 GB228

Comments (0 Comments)




Please login or create a FREE account to post comments

Latest Searches

| Step sister free young | game of thrones mrjat | head over boots jon pardi | une de chance | dig it the | see in re | Ghostbusters 2016 EXTENDED BRRiP x265 RiPRG | Beatport Top 100 EDM Songs DJ Tracks | Hello Its Me 2015 | Secret by Rhonda Byrne Unabridged |