Quick Browse
Movies
TV shows
Music
Games
Applications
Anime
Other
Facebook
Advertising

Friends
Torrent Download
Movie4u
1337x.to
Torrent Downloads




Grown.Ups.2010.BluRay.720p.x264.AC3-WOFEI


    Seeders : 50      Leechers : 205
Hash :313106A99A13405BD979669E6107FBA9BF47B05F
Added :1 Year+ by Mack in Movies
Size :2.05 GB
Stream :WATCH ONLINE @ Movie4u


Grown.Ups.2010.BluRay.720p.x264.AC3-WOFEI
Free and Fast Download with Usenet 300GB+ free







Trackers List

Tracker NameLast CheckStatusSeedersLeechers




Torrent File Content (11 files)


飞鸟娱乐[bbs.hdbird.com].长大后.720P.中英字幕
     bbs.hdbird.com@飞鸟娱乐.txt -
1.27 KB

     长大后 Grown.Ups.2010.BluRay.720p.x264.AC3-WOFEI.jpg -
306.01 KB

     长大后.jpg -
126.89 KB

     长大后.txt -
11.2 KB

     弹弹堂-远征的召唤.url -
317 bytes

     德克萨斯扑克游戏-零距离感受欧美最风靡的扑克游戏.url -
272 bytes

     飞鸟娱乐-边看电影边学英语,娱乐学习两不误.url -
272 bytes

     飞鸟娱乐[bbs.hdbird.com].长大后.720P.中英字幕.mkv -
2.04 GB

     飞鸟娱乐网址更新器.rar -
122.25 KB

     飞鸟娱乐主页-下载免费电影的绝佳选择!.htm -
5.99 KB

     小浪影视-下载中英字幕电影的好地方.url -
270 bytes



Description



http://center.jeddahbikers.com/uploads/jb12876453671.jpg


http://center.jeddahbikers.com/uploads/jb12876453672.jpg


Format : Matroska
File size : 2.04 GiB
Duration : 1h 42mn
Overall bit rate : 2 861 Kbps
Encoded date : UTC 2010-10-19 23:53:40
Writing application : mkvmerge v3.3.0 ('Language') 卤脿脪毛脫脷 Mar 24 2010 14:59:24
Writing library : libebml v0.8.0 + libmatroska v0.9.0
Video #1
ID : 1
Format : AVC
Format/Info : Advanced Video Codec
Format profile : [email protected]
Format settings, CABAC : Yes
Format settings, ReFrames : 4 frames
Muxing mode : Container [email protected]
Codec ID : V_MPEG4/ISO/AVC
Duration : 1h 42mn
Bit rate : 2 356 Kbps
Nominal bit rate : 2 417 Kbps
Width : 1 280 pixels
Height : 694 pixels
Display aspect ratio : 16:9
Frame rate : 23.976 fps
Resolution : 8 bits
Colorimetry : 4:2:0
Scan type : Progressive
Bits/(Pixel*Frame) : 0.111
Stream size : 1.68 GiB (82%)
Writing library : x264 core 98 r1649 c54c47d
Encoding settings : cabac=1 / ref=4 / deblock=1:-1:-1 / analyse=0x3:0x113 / me=umh / subme=6 / psy=1 / psy_rd=1.00:0.00 / mixed_ref=1 / me_range=16 / chroma_me=1 / trellis=2 / 8x8dct=1 / cqm=0 / deadzone=21,11 / fast_pskip=1 / chroma_qp_offset=-2 / threads=6 / sliced_threads=0 / nr=0 / decimate=1 / interlaced=0 / constrained_intra=0 / bframes=3 / b_pyramid=0 / b_adapt=1 / b_bias=0 / direct=3 / weightb=1 / weightp=2 / keyint=250 / keyint_min=25 / scenecut=40 / intra_refresh=0 / rc_lookahead=40 / rc=2pass / mbtree=1 / bitrate=2417 / ratetol=1.0 / qcomp=0.60 / qpmin=10 / qpmax=51 / qpstep=4 / cplxblur=20.0 / qblur=0.5 / vbv_maxrate=50000 / vbv_bufsize=50000 / ip_ratio=1.40 / aq=1:1.00 / nal_hrd=none
Language : English
Audio #2
ID : 2
Format : AC-3
Format/Info : Audio Coding 3
Codec ID : A_AC3
Duration : 1h 42mn
Bit rate mode : Constant
Bit rate : 448 Kbps
Channel(s) : 6 channels
Channel positions : Front: L C R, Surround: L R, LFE
Sampling rate : 48.0 KHz
Stream size : 328 MiB (16%)

Related torrents

Torrent NameAddedSizeSeedLeechHealth
1 Good
1 Year+ - in Movies5.04 GB2316
1 Year+ - in Movies2.05 GB00
1 Year+ - in Movies4.36 GB883447
1 Year+ - in Movies9.98 GB25123
1 Year+ - in Movies551.35 MB29

Comments (0 Comments)




Please login or create a FREE account to post comments

Latest Searches

| ross networking | Angela White AirTight 2016 | jimi 001 | BRAZZERS Elsa Jean Gia Paige Gina Valentina Danny D | apparently j cole | she s live | Aidra Fox Julia Ann | The big fat anniversary | Oriental Dream Top Secret Creampie | dual audio hindi eng ice age |