Quick Browse
Movies
TV shows
Music
Games
Applications
Anime
Other
Facebook
Advertising

Friends
Torrent Download
Movie4u
1337x.to
Torrent Downloads




Verified torrent Grown Ups 2010 DVDSCR XViD - IMAGiNE - {XtremeTorrents}


    Seeders : 376      Leechers : 41

Trackers List

Tracker NameLast CheckStatusSeedersLeechers




Torrent File Content (105 files)


Grown Ups 2010 DVDSCR-XViD-IMAGiNE
     Grown Ups 2010 DVDSCR-XViD-IMAGiNE.NFO -
4.57 KB

     Grown Ups 2010 DVDSCR-XViD-IMAGiNE.part001.rar -
14.31 MB

     Grown Ups 2010 DVDSCR-XViD-IMAGiNE.part001.sfv -
13.65 KB

     Grown Ups 2010 DVDSCR-XViD-IMAGiNE.part002.rar -
14.31 MB

     Grown Ups 2010 DVDSCR-XViD-IMAGiNE.part003.rar -
14.31 MB

     Grown Ups 2010 DVDSCR-XViD-IMAGiNE.part004.rar -
14.31 MB

     Grown Ups 2010 DVDSCR-XViD-IMAGiNE.part005.rar -
14.31 MB

     Grown Ups 2010 DVDSCR-XViD-IMAGiNE.part006.rar -
14.31 MB

     Grown Ups 2010 DVDSCR-XViD-IMAGiNE.part007.rar -
14.31 MB

     Grown Ups 2010 DVDSCR-XViD-IMAGiNE.part008.rar -
14.31 MB

     Grown Ups 2010 DVDSCR-XViD-IMAGiNE.part009.rar -
14.31 MB

     Grown Ups 2010 DVDSCR-XViD-IMAGiNE.part010.rar -
14.31 MB

     Grown Ups 2010 DVDSCR-XViD-IMAGiNE.part011.rar -
14.31 MB

     Grown Ups 2010 DVDSCR-XViD-IMAGiNE.part012.rar -
14.31 MB

     Grown Ups 2010 DVDSCR-XViD-IMAGiNE.part013.rar -
14.31 MB

     Grown Ups 2010 DVDSCR-XViD-IMAGiNE.part014.rar -
14.31 MB

     Grown Ups 2010 DVDSCR-XViD-IMAGiNE.part015.rar -
14.31 MB

     Grown Ups 2010 DVDSCR-XViD-IMAGiNE.part016.rar -
14.31 MB

     Grown Ups 2010 DVDSCR-XViD-IMAGiNE.part017.rar -
14.31 MB

     Grown Ups 2010 DVDSCR-XViD-IMAGiNE.part018.rar -
14.31 MB

     Grown Ups 2010 DVDSCR-XViD-IMAGiNE.part019.rar -
14.31 MB

     Grown Ups 2010 DVDSCR-XViD-IMAGiNE.part020.rar -
14.31 MB

     Grown Ups 2010 DVDSCR-XViD-IMAGiNE.part021.rar -
14.31 MB

     Grown Ups 2010 DVDSCR-XViD-IMAGiNE.part022.rar -
14.31 MB

     Grown Ups 2010 DVDSCR-XViD-IMAGiNE.part023.rar -
14.31 MB

     Grown Ups 2010 DVDSCR-XViD-IMAGiNE.part024.rar -
14.31 MB

     Grown Ups 2010 DVDSCR-XViD-IMAGiNE.part025.rar -
14.31 MB

     Grown Ups 2010 DVDSCR-XViD-IMAGiNE.part026.rar -
14.31 MB

     Grown Ups 2010 DVDSCR-XViD-IMAGiNE.part027.rar -
14.31 MB

     Grown Ups 2010 DVDSCR-XViD-IMAGiNE.part028.rar -
14.31 MB

     Grown Ups 2010 DVDSCR-XViD-IMAGiNE.part029.rar -
14.31 MB

     Grown Ups 2010 DVDSCR-XViD-IMAGiNE.part030.rar -
14.31 MB

     Grown Ups 2010 DVDSCR-XViD-IMAGiNE.part031.rar -
14.31 MB

     Grown Ups 2010 DVDSCR-XViD-IMAGiNE.part032.rar -
14.31 MB

     Grown Ups 2010 DVDSCR-XViD-IMAGiNE.part033.rar -
14.31 MB

     Grown Ups 2010 DVDSCR-XViD-IMAGiNE.part034.rar -
14.31 MB

     Grown Ups 2010 DVDSCR-XViD-IMAGiNE.part035.rar -
14.31 MB

     Grown Ups 2010 DVDSCR-XViD-IMAGiNE.part036.rar -
14.31 MB

     Grown Ups 2010 DVDSCR-XViD-IMAGiNE.part037.rar -
14.31 MB

     Grown Ups 2010 DVDSCR-XViD-IMAGiNE.part038.rar -
14.31 MB

     Grown Ups 2010 DVDSCR-XViD-IMAGiNE.part039.rar -
14.31 MB

     Grown Ups 2010 DVDSCR-XViD-IMAGiNE.part040.rar -
14.31 MB

     Grown Ups 2010 DVDSCR-XViD-IMAGiNE.part041.rar -
14.31 MB

     Grown Ups 2010 DVDSCR-XViD-IMAGiNE.part042.rar -
14.31 MB

     Grown Ups 2010 DVDSCR-XViD-IMAGiNE.part043.rar -
14.31 MB

     Grown Ups 2010 DVDSCR-XViD-IMAGiNE.part044.rar -
14.31 MB

     Grown Ups 2010 DVDSCR-XViD-IMAGiNE.part045.rar -
14.31 MB

     Grown Ups 2010 DVDSCR-XViD-IMAGiNE.part046.rar -
14.31 MB

     Grown Ups 2010 DVDSCR-XViD-IMAGiNE.part047.rar -
14.31 MB

     Grown Ups 2010 DVDSCR-XViD-IMAGiNE.part048.rar -
14.31 MB

+ Show all torrent content...

Description



http://img.scenereleases.info/image-9656_4C3BDAA5.jpg


http://img.scenereleases.info/image-CA84_4C3BDA7E.jpg


Ripper ...........: IMAGiNE IMDB Rating.......:5.4/10
Video Codec.......: Xvid Release Date......:25 June 2010
Audio Codec.......:AC3 Runtime.......:1h 42mn
Audio Bitrate.....:448 Language..........:ENGLISH
Subtitles.........:NIL
Resolution...... 720 x 384 IMDb URL..........:http://www.imdb.com/title/tt1375670/


DETAILS:

General
Complete name : Grown Ups 2010 DVDSCR-XViD-IMAGiNE.avi
Format : AVI
Format/Info : Audio Video Interleave
File size : 1.37 GiB
Duration : 1h 42mn
Overall bit rate : 1 913 Kbps
Writing library : VirtualDub build 32706/release

Video
Format : MPEG-4 Visual
Codec ID/Hint : XviD
Duration : 1h 42mn
Bit rate : 1 647 Kbps
Width : 720 pixels
Height : 384 pixels
Display aspect ratio : 1.875
Frame rate : 23.976 fps
Resolution : 24 bits
Colorimetry : 4:2:0
Scan type : Progressive
Bits/(Pixel*Frame) : 0.249
Stream size : 1.18 GiB (86%)
Writing library : XviD 50

Audio
Format : AC-3
Format/Info : Audio Coding 3
Codec ID : 2000
Duration : 1h 42mn
Bit rate mode : Constant
Bit rate : 256 Kbps
Channel(s) : 2 channels
Channel positions : L R
Sampling rate : 48.0 KHz
Stream size : 188 MiB (13%)
Alignment : Aligned on interleaves
Interleave, duration : 42 ms (1.00 video frame)
Interleave, preload duration : 512 ms

Release Group: IMAGiNE (P2P)
Release Name: Grown_Ups_2010_DVDSCR-XViD-IMAGiNE
Release Date: July 12, 2010
Filename: Grown_Ups_2010_DVDSCR-XViD-IMAGiNE.avi
Source: DVDSCR
Size: 1.38 GB
Genre: Comedy
Video: 720 x 384 | 23.976 fps | 1 647 Kbps
Audio: English | AC-3 | 256 Kbps
Subtitles: None
Runtime: 1h 42mn
IMDB Rating: 5.3/10 (3,252 votes)
Directed By: Dennis Dugan
Starring: Adam Sandler, Kevin James, Chris Rock, David Spade
After their high school basketball coach passes away, five good friends and former teammates reunite for a Fourth of July holiday weekend.

Related torrents

Torrent NameAddedSizeSeedLeechHealth
1 Year+ - in Movies1.38 GB00
1 Year+ - in Movies1.38 GB15740
1 Year+ - in Movies1.39 GB110
1 Year+ - in Movies840.82 MB436
1 Good
1 Year+ - in Movies1.22 GB12315

Comments (2 Comments)




swiftsnake56
» Downloaded this torrent Downloaded this torrent » Voted Good Voted Good for this torrent for this torrent

Added 1 Year+
audio 10, video 10. great film
pressman1
» Downloaded this torrent Downloaded this torrent » Voted Good Voted Good for this torrent for this torrent

Added 1 Year+
great thanx
Please login or create a FREE account to post comments

Latest Searches

| Hollywood Madonna | big butt all stars kahfee | david allen coe | Voltage Currently in charge Vol 1 GrimesPromoMan | Peter s Dragon | 70 fill | toby Keith s greatest hits | suicide squad full movie full movie 2016 | rome 1080p | One day soon walters |