Quick Browse
Movies
TV shows
Music
Games
Applications
Anime
Other

Donate and Support

Friends
Torrents.me
Torrent Download
Free Movies
1337x
RARBG
Torrent Downloads

Verified torrent Gucci Mane ft Swizz Beats - Gucci Time [KingPinVideos]


    Seeders : 52      Leechers : 3
Hash :CBA9CEE83C235B2B631EB70B40721DA09CDC386D
Added :1 Year+ by KingPinVerified torrent uploader in Music - Music Videos
Size :67.07 MB
Stream :Watch Full Movies Online @ Movie4u
Share :


Gucci Mane ft Swizz Beats - Gucci Time [KingPinVideos]
Anonymous and Direct Download 300GB+ free







Warning! Do not Download Torrents Without a VPN!
Your IP Address is .   And Location is
Your Internet Provider and Government can track your torrent Activity!  Hide your IP ADDRESS with a VPN!
We Strongly Recommend Using SpyOFF Torrent VPN to Anonymize your Torrenting. It's FREE For 15 Days!

Note :

Please Update (Trackers Info) Before Downloading Torrents to See Updated Seeders And Leechers for Batter Download Speed.

Trackers List

Tracker NameLast CheckStatusSeedersLeechers




Torrent File Content (6 files)


Gucci Mane ft Swizz Beatz - Gucci Time [KingPinVideos]
     Gucci Mane ft Swizz Beatz - Gucci Time [KingPinVideos].mpg -
67.06 MB

     Gucci Mane ft Swizz Beatz - Gucci Time [KingPinVideos].nfo -
1.86 KB

     Gucci Mane ft Swizz Beatz - Gucci Time [KingPinVideos].txt -
1.64 KB

     Gucci Mane ft Swizz Beats - Gucci Time [KingPinVideos].txt -
1.64 KB

     Torrent downloaded from Demonoid.com.txt -
47 bytes

     Torrent Downloaded from Limetorrents.com.txt -
46 bytes



Description



http://img23.imageshack.us/img23/1438/guccimanetime.png


http://img838.imageshack.us/img838/9922/guccimanetime2.png


[code]General
Complete name : Gucci Mane ft Swizz Beats - Gucci Time [KingPinVideos].mpg
Format : MPEG-PS
File size : 67.1 MiB
Duration : 3mn 16s
Overall bit rate : 2 856 Kbps
Writing library : encoded by TMPGEnc 4.0 XPress Version. 4.7.4.299

Video
ID : 224 (0xE0)
Format : MPEG Video
Format version : Version 1
Format settings, BVOP : Yes
Format settings, Matrix : Default
Duration : 3mn 16s
Bit rate mode : Constant
Bit rate : 2 615 Kbps
Nominal bit rate : 2 700 Kbps
Width : 384 pixels
Height : 208 pixels
Display aspect ratio : 16:9
Frame rate : 29.970 fps
Resolution : 8 bits
Scan type : Progressive
Bits/(Pixel*Frame) : 1.092
Stream size : 61.4 MiB (92%)
Writing library : TMPGEnc XPress 4.7.4.299

Audio
ID : 192 (0xC0)
Format : MPEG Audio
Format version : Version 1
Format profile : Layer 2
Duration : 3mn 16s
Bit rate mode : Constant
Bit rate : 128 Kbps
Channel(s) : 2 channels
Sampling rate : 48.0 KHz
Stream size : 3.01 MiB (4%)[/code]

Related torrents

Torrent NameAddedSizeSeedLeechHealth
Last Month - in Other4.51 MB00
1 Year+ - in Music64.03 MB12
1 Year+ - in Music101.11 MB1121
1 Year+ - in Music189.19 MB00
1 Year+ - in Music2.38 MB00

Comments (0 Comments)




Please login or create a FREE account to post comments

Latest Searches

| Sweetwood | PURE SALINAS VOL 8 COMPILED BY DJ ZAPPI | Adriana Chechik Nicolette Shea He Makes Wifey Watch | Seductive Girls Super Hot And Spicy Wallpapers Set 40 | itunes top 10 songs 2014 | King Arthur Legend of the Sword 1080p replica | Seductive Girls Super Hot And Spicy Wallpapers Set 41 | Seductive Girls Super Hot And Spicy Wallpapers Set 42 | everybody be like | Seductive Girls Super Hot And Spicy Wallpapers Set 43 |