Quick Browse
Movies
TV shows
Music
Games
Applications
Anime
Other
Facebook
Advertising

Friends
Torrent Download
Movie4u
1337x.to
Torrent Downloads




Verified torrent Gudda Gudda ft Lil Wayne - I Dont Like The Look Of It [KingPinVideos] {MKV and MPEG}


    Seeders : 20      Leechers : 6

Trackers List

Tracker NameLast CheckStatusSeedersLeechers




Torrent File Content (7 files)


Gudda Gudda ft Lil Wayne - I Dont Like The Look Of It [KingPinVideos]
     Gudda Gudda ft Lil Wayne - I Dont Like The Look Of It [KingPinMKVideos].mkv -
71.7 MB

     Gudda Gudda ft Lil Wayne - I Dont Like The Look Of It [KingPinVideos].mpg -
67.95 MB

     Gudda Gudda ft Lil Wayne - I Dont Like The Look Of It [KingPinMKVideos].txt -
2.7 KB

     Gudda Gudda ft Lil Wayne - I Dont Like The Look Of It [KingPinVideos].nfo -
1.98 KB

     Gudda Gudda ft Lil Wayne - I Dont Like The Look Of It [KingPinVideos].txt -
1.66 KB

     Torrent downloaded from Demonoid.com.txt -
47 bytes

     Torrent Downloaded from Limetorrents.com.txt -
46 bytes



Description



Two Videos One In MKV and One In MPEG Format

http://img210.imageshack.us/img210/7185/guddalookofit.png


http://img230.imageshack.us/img230/7696/guddalookofit2.png


[code]General
Complete name : Gudda Gudda ft Lil Wayne - I Dont Like The Look Of It [KingPinVideos].mpg
Format : MPEG-PS
File size : 67.9 MiB
Duration : 3mn 19s
Overall bit rate : 2 856 Kbps
Writing library : encoded by TMPGEnc 4.0 XPress Version. 4.7.4.299

Video
ID : 224 (0xE0)
Format : MPEG Video
Format version : Version 1
Format settings, BVOP : Yes
Format settings, Matrix : Default
Duration : 3mn 19s
Bit rate mode : Constant
Bit rate : 2 615 Kbps
Nominal bit rate : 2 700 Kbps
Width : 384 pixels
Height : 208 pixels
Display aspect ratio : 16:9
Frame rate : 29.970 fps
Resolution : 8 bits
Scan type : Progressive
Bits/(Pixel*Frame) : 1.092
Stream size : 62.2 MiB (92%)
Writing library : TMPGEnc XPress 4.7.4.299

Audio
ID : 192 (0xC0)
Format : MPEG Audio
Format version : Version 1
Format profile : Layer 2
Duration : 3mn 19s
Bit rate mode : Constant
Bit rate : 128 Kbps
Channel(s) : 2 channels
Sampling rate : 48.0 KHz
Stream size : 3.04 MiB (4%)[/code]

AND

[color="#FFA500"]DOWNLOAD I DONT LIKE THE LOOK OF IT IN MKV FORMAT WITH BIGGER BETTER RESOLUTION[[/color]

[code]General
Complete name : Gudda Gudda ft Lil Wayne - I Dont Like The Look Of It [KingPinMKVideos].mkv
Format : Matroska
File size : 71.7 MiB
Duration : 3mn 19s
Overall bit rate : 3 011 Kbps
Encoded date : UTC 2010-10-20 22:48:11
Writing application : mkvmerge v4.0.0 ('The Stars were mine') built on Jun 6 2010 16:18:42
Writing library : libebml v1.0.0 + libmatroska v1.0.0

Video
ID : 1
Format : AVC
Format/Info : Advanced Video Codec
Format profile : [email protected]
Format settings, CABAC : Yes
Format settings, ReFrames : 4 frames
Muxing mode : Container [email protected]
Codec ID : V_MPEG4/ISO/AVC
Duration : 3mn 19s
Bit rate : 2 791 Kbps
Nominal bit rate : 2 839 Kbps
Width : 576 pixels
Height : 324 pixels
Display aspect ratio : 16:9
Frame rate : 23.976 fps
Resolution : 8 bits
Colorimetry : 4:2:0
Scan type : Progressive
Bits/(Pixel*Frame) : 0.624
Stream size : 66.4 MiB (93%)
Writing library : x264 core 98 r1649 20cbe10

Audio
ID : 2
Format : AC-3
Format/Info : Audio Coding 3
Codec ID : A_AC3
Duration : 3mn 19s
Bit rate mode : Constant
Bit rate : 160 Kbps
Channel(s) : 2 channels
Channel positions : L R
Sampling rate : 44.1 KHz
Stream size : 3.81 MiB (5%)[/code]

Related torrents

Torrent NameAddedSizeSeedLeechHealth
1 Year+ - in Music9.67 MB833
1 Year+ - in Music6.03 MB10
1 Year+ - in Music6.31 MB20
1 Year+ - in Music6.29 MB180
1 Year+ - in Music3.9 MB02

Comments (0 Comments)




Please login or create a FREE account to post comments

Latest Searches

| DEFiANCE 2013 Season 1 | 3 s01e03 nf | Era glaciale 5 ita | Spectre 2015 720p BluRay x264 Dual Audio Hindi DD 5 1 English DD 5 1 LOKI M2Tv | Planeta Singli 2016 1080p | lloyd any | dragon ball legenda | j cole any given sunday 5 | Pink Panther movie | Tushy Jillian Janson Anya Olsen |