Quick Browse
Movies
TV shows
Music
Games
Applications
Anime
Other
Facebook
Advertising

Friends
Torrent Download
Movie4u
1337x.to
Torrent Downloads




Gurren Lagann the Movie - Childhood's End [H264 ITA JAP AC3 Sub ITA ENG] [TNTVillage]


    Seeders : 34      Leechers : 55

Trackers List

Tracker NameLast CheckStatusSeedersLeechers




Torrent File Content (1 file)


     Gurren Lagann the Movie - Childhood's End [x264 ITA JAP AC3 Sub ITA ENG].mkv -
2.1 GB



Description



[color=blue]Gurren Lagann the Movie - Childhood's End [H264 ITA JAP AC3 Sub ITA ENG] [TNTVillage][/color]

.: Release Originale :.

[url]http://forum.tntvillage.scambioetico.org/index.php?showtopic=315619[/url]

.: Scheda :.

http://img856.imageshack.us/img856/902/gurrenm1locan.gif


Titolo originale: Gekijōban Tengen Toppa Gurren Lagann: Gurren-hen
Anno: 2008
Genere: Fantascienza, Mecha, Azione
Produzione: GAINAX
Regia: Hiroyuki Imaishi
Sceneggiatura: Kazuki Nakashima
Character Design: Atsushi Nishigori
Distribuzione: Dynit (2011)
Durata: 112 min (1h 52mn)

.: Trama :.

Siamo in un futuro lontano. Simon è un ragazzino timido che vive nel villaggio sotterraneo di Jiha e trascorre le sue ore, giorno e notte che sia, a scavare fosse. Un giorno ritrova sottoterra una piccola trivella luminescente e un mecha forgiato a forma di grande faccia. Si tratta del Lagann.
Di tutto il villaggio l'unico a credere in lui è Kamina, un ragazzo più grande che si è sempre comportato nei suoi confronti come se ne fosse un fratello. Il loro destino inizia a muoversi e cambiare quando dalla superficie della Terra irrompe nel villaggio nascosto di Jiha un enorme mecha anch'esso formato da un solo, unico, imponente viso. Quello è un Gunmen. E si scatena alla grande, per giunta.
Mentre Kamina e Simon tentano di arginarne l'impeto ecco comparire lei, Yoko, un'affascinante cittadina della crosta terrestre...

.: Screenshot :.

[URL=http://www.imagebam.com/image/4680e8223237286]
http://thumbnails106.imagebam.com/22324/4680e8223237286.jpg
[/URL]

========================================

.: Dati tecnici del file :.

General
Unique ID : 223736152659656451961113616840118658102 (0xA85203FEAF2855FFB4486E645E0A6436)
Complete name : Gurren Lagann the Movie - Childhood's End [x264 ITA JAP AC3 Sub ITA ENG].mkv
Format : Matroska
Format version : Version 2
File size : 2.10 GiB
Duration : 1h 52mn
Overall bit rate : 2 683 Kbps
Movie name : Gurren Lagann the Movie - Childhood's End
Encoded date : UTC 2012-11-17 20:26:21
Writing application : mkvmerge v5.8.0 ('No Sleep / Pillow') built on Sep 2 2012 15:37:04
Writing library : libebml v1.2.3 + libmatroska v1.3.0
Attachment : Yes / Yes

Video
ID : 1
Format : AVC
Format/Info : Advanced Video Codec
Format profile : [email protected]
Format settings, CABAC : Yes
Format settings, ReFrames : 16 frames
Codec ID : V_MPEG4/ISO/AVC
Duration : 1h 52mn
Bit rate : 1 734 Kbps
Width : 716 pixels
Height : 480 pixels
Display resolution : 848 x 480
Display aspect ratio : 16:9
Original display aspect ratio : 3:2
Frame rate : 23.976 fps
Color space : YUV
Chroma subsampling : 4:2:0
Bit depth : 8 bits
Scan type : Progressive
Bits/(Pixel*Frame) : 0.210
Stream size : 1.36 GiB (65%)
Title : Gurren Lagann the Movie - Childhood's End
Writing library : x264 core 112 r1867 22bfd31
Encoding settings : cabac=1 / ref=16 / deblock=1:0:0 / analyse=0x3:0x133 / me=umh / subme=10 / psy=1 / psy_rd=1.00:0.00 / mixed_ref=1 / me_range=32 / chroma_me=1 / trellis=2 / 8x8dct=1 / cqm=0 / deadzone=6,6 / fast_pskip=0 / chroma_qp_offset=-2 / threads=6 / sliced_threads=0 / nr=0 / decimate=0 / interlaced=0 / constrained_intra=0 / bframes=8 / b_pyramid=2 / b_adapt=2 / b_bias=0 / direct=3 / weightb=1 / open_gop=0 / weightp=2 / keyint=250 / keyint_min=23 / scenecut=40 / intra_refresh=0 / rc=crf / mbtree=0 / crf=15.0 / qcomp=0.60 / qpmin=0 / qpmax=51 / qpstep=4 / ip_ratio=1.40 / pb_ratio=1.30 / aq=2:1.00
Language : Japanese

Audio #1
ID : 2
Format : AC-3
Format/Info : Audio Coding 3
Mode extension : CM (complete main)
Codec ID : A_AC3
Duration : 1h 52mn
Bit rate mode : Constant
Bit rate : 448 Kbps
Channel(s) : 6 channels
Channel positions : Front: L C R, Side: L R, LFE
Sampling rate : 48.0 KHz
Bit depth : 16 bits
Compression mode : Lossy
Stream size : 360 MiB (17%)
Title : ITA AC3 5.1
Language : Italian

Audio #2
ID : 3
Format : AC-3
Format/Info : Audio Coding 3
Mode extension : CM (complete main)
Codec ID : A_AC3
Duration : 1h 52mn
Bit rate mode : Constant
Bit rate : 448 Kbps
Channel(s) : 6 channels
Channel positions : Front: L C R, Side: L R, LFE
Sampling rate : 48.0 KHz
Bit depth : 16 bits
Compression mode : Lossy
Stream size : 360 MiB (17%)
Title : JAP AC3 5.1
Language : Japanese

Text #1
ID : 4
Format : VobSub
Muxing mode : zlib
Codec ID : S_VOBSUB
Codec ID/Info : The same subtitle format used on DVDs
Title : CARTELLI
Language : Italian

Text #2
ID : 5
Format : VobSub
Muxing mode : zlib
Codec ID : S_VOBSUB
Codec ID/Info : The same subtitle format used on DVDs
Title : DIALOGHI
Language : Italian

Text #3
ID : 6
Format : ASS
Codec ID : S_TEXT/ASS
Codec ID/Info : Advanced Sub Station Alpha
Compression mode : Lossless
Title : ENG
Language : English

Menu
00:00:00.000 : en:Chapter 1
00:03:03.000 : en:Chapter 2
00:21:20.700 : en:Chapter 3
00:25:49.200 : en:Chapter 4
00:40:42.167 : en:Chapter 5
00:43:38.500 : en:Chapter 6
00:52:01.000 : en:Chapter 7
01:08:25.000 : en:Chapter 8
01:20:21.667 : en:Chapter 9
01:38:25.667 : en:Chapter 10
01:46:56.667 : en:Chapter 11
01:51:22.167 : en:Chapter 12
01:51:57.333 : en:Chapter 13

Related torrents

Torrent NameAddedSizeSeedLeechHealth
Verified torrent
1 Year+ - in Movies4.91 GB24
1 Year+ - in Other318.94 MB730
1 Year+ - in TV shows1.55 GB01
1 Year+ - in TV shows1.57 GB5725
1 Year+ - in TV shows1.6 GB4115

Comments (0 Comments)




Please login or create a FREE account to post comments

Latest Searches

| Marsha May Peeping Tom | predators vs alien avi | naruto shippuden opening 7 full | buttfuck juelz ventura 1080p | Plants vs Zombies Garden Warfare 1 pc | pokemon giratina sky warrior | buttfuck juelz ventura | Soft Touch 3 A | the cha s | MadTV S15E03 PROPER 720p HDTV x264 W4F |