Quick Browse
Movies
TV shows
Music
Games
Applications
Anime
Other

Donate and Support

Friends
Torrents.me
Torrent Download
Free Movies
1337x
RARBG
Torrent Downloads

Verified torrent HUM HAIN RAHI PYAR KE 1993 DVDRIP XVID UNTOUCH AC3 Striker WBZ


    Seeders : 1      Leechers : 0
Hash :36E45E789B716692F5E0E24426649FD4CFA1924F
Added :1 Year+ by striker123Verified torrent uploader in Movies
Size :1.47 GB
Stream :Watch Full Movies Online @ Movie4u
Share :


HUM HAIN RAHI PYAR KE 1993 DVDRIP XVID UNTOUCH AC3 Striker WBZ
Anonymous and Direct Download 300GB+ free







Warning! Do not Download Torrents Without a VPN!
Your IP Address is .   And Location is
Your Internet Provider and Government can track your torrent Activity!  Hide your IP ADDRESS with a VPN!
We Strongly Recommend Using SpyOFF Torrent VPN to Anonymize your Torrenting. It's FREE For 15 Days!

Note :

Please Update (Trackers Info) Before Downloading Torrents to See Updated Seeders And Leechers for Batter Download Speed.

Trackers List

Tracker NameLast CheckStatusSeedersLeechers




Torrent File Content (12 files)


HUM HAIN RAHI PYAR KE 1993 DVDRIP XVID UNTOUCH AC3 Striker WBZ
     HUM HAIN RAHI PYAR KE 1993 DVDRIP XVID UNTOUCH AC3 Striker WBZ.avi -
1.45 GB

     Sample.avi -
20.62 MB

    Screens
          1.jpg -
39.11 KB

          10.jpg -
27.48 KB

          2.jpg -
28.94 KB

          3.jpg -
32.01 KB

          4.jpg -
32.67 KB

          5.jpg -
25.16 KB

          6.jpg -
24.02 KB

          7.jpg -
33.04 KB

          8.jpg -
23.19 KB

          9.jpg -
24.89 KB



Description



http://r3ply.com/wp-content/uploads/2011/03/hum-hai-rahi-pyar-ke-wallpaper.jpg


[code]General
Format : AVI
Format/Info : Audio Video Interleave
File size : 1.45 GiB
Duration : 2h 29mn
Overall bit rate : 1 392 Kbps

Video
ID : 0
Format : MPEG-4 Visual
Format profile : Advanced [email protected]
Format settings, BVOP : 2
Format settings, QPel : No
Format settings, GMC : No warppoints
Format settings, Matrix : Default (H.263)
Codec ID : XVID
Codec ID/Hint : XviD
Duration : 2h 29mn
Bit rate : 935 Kbps
Width : 640 pixels
Height : 336 pixels
Display aspect ratio : 1.905
Frame rate : 29.970 fps
Color space : YUV
Chroma subsampling : 4:2:0
Bit depth : 8 bits
Scan type : Progressive
Compression mode : Lossy
Bits/(Pixel*Frame) : 0.145
Stream size : 1 000 MiB (67%)
Writing library : XviD 1.2.1 (UTC 2008-12-04)

Audio
ID : 1
Format : AC-3
Format/Info : Audio Coding 3
Mode extension : CM (complete main)
Codec ID : 2000
Duration : 2h 29mn
Bit rate mode : Constant
Bit rate : 448 Kbps
Channel(s) : 6 channels
Channel positions : Front: L C R, Side: L R, LFE
Sampling rate : 48.0 KHz
Bit depth : 16 bits
Compression mode : Lossy
Stream size : 479 MiB (32%)
Alignment : Aligned on interleaves
Interleave, duration : 64 ms (1.92 video frames)
Interleave, preload duration : 192 ms
Title : Striker[WBZ] [/code]

http://pic.phyrefile.com/s/sh/shahaz/2011/04/12/1_007.jpg

http://pic.phyrefile.com/s/sh/shahaz/2011/04/12/2_007.jpg

http://pic.phyrefile.com/s/sh/shahaz/2011/04/12/3_006.jpg

http://pic.phyrefile.com/s/sh/shahaz/2011/04/12/4_006.jpg

http://pic.phyrefile.com/s/sh/shahaz/2011/04/12/5_006.jpg

http://pic.phyrefile.com/s/sh/shahaz/2011/04/12/6_006.jpg

http://pic.phyrefile.com/s/sh/shahaz/2011/04/12/7_006.jpg

http://pic.phyrefile.com/s/sh/shahaz/2011/04/12/8_006.jpg

http://pic.phyrefile.com/s/sh/shahaz/2011/04/12/9_006.jpg

http://pic.phyrefile.com/s/sh/shahaz/2011/04/12/10_006.jpg


Related torrents

Torrent NameAddedSizeSeedLeechHealth
1 Year+ - in Music886.79 MB01
Verified torrent
1 Year+ - in Movies711.11 MB00
1 Year+ - in Music77.43 MB00
1 Year+ - in Movies1.91 GB128
Verified torrent
1 Year+ - in Movies1.47 GB00

Comments (0 Comments)




Please login or create a FREE account to post comments

Latest Searches

| blaire east park | audrey smoking | pearls and pitfalls in pediatric imaging | natty x265 | tintin temple | | Stargate 1994 1080p BluRay x265 10bit z97 | Zuzinka Com | there for you single | l chop o |