Quick Browse
Movies
TV shows
Music
Games
Applications
Anime
Other

Donate and Support

Friends
Torrents.me
Torrent Download
Free Movies
1337x
RARBG
Torrent Downloads

Verified torrent Hanna 2011 720p RC BDRiP LiNE XViD AC3 - IMAGiNE


    Seeders : 643      Leechers : 502
Hash :13E88F24E4953D044DFE61EE123EC486E1AC43A2
Added :1 Year+ by memory100Verified torrent uploader in Movies
Size :2.86 GB
Stream :Watch Full Movies Online @ Movie4u
Share :


Hanna 2011 720p RC BDRiP LiNE XViD AC3 - IMAGiNE
Anonymous and Direct Download 300GB+ free







Warning! Do not Download Torrents Without a VPN!
Your IP Address is .   And Location is
Your Internet Provider and Government can track your torrent Activity!  Hide your IP ADDRESS with a VPN!
We Strongly Recommend Using SpyOFF Torrent VPN to Anonymize your Torrenting. It's FREE For 15 Days!

Note :

Please Update (Trackers Info) Before Downloading Torrents to See Updated Seeders And Leechers for Batter Download Speed.

Trackers List

Tracker NameLast CheckStatusSeedersLeechers




Torrent File Content (9 files)


Hanna 2011 RC BDRiP LiNE XViD AC3 - IMAGiNE
     Budget seedboxs.txt -
44 bytes

     Hanna 2011 RC BDRiP LiNE XViD AC3 - IMAGiNE SAMPLE.avi -
22.12 MB

     Hanna 2011 RC BDRiP LiNE XViD AC3 - IMAGiNE.NFO -
4.98 KB

     Hanna 2011 RC BDRiP LiNE XViD AC3 - IMAGiNE.avi -
2.84 GB

     NW RG.nfo -
12.96 KB

     Torrent downloaded from Demonoid.me.txt -
46 bytes

     dreamthe.net.txt -
91 bytes

     northernwarriors.net.txt -
135 bytes

     sceneunderground.org.txt -
77 bytes



Description



http://i.imgur.com/RNp5s.jpg

[code]
Hanna 2011 RC BDRiP LiNE XViD AC3 - IMAGiNE

Ripper ...........: IMAGiNE IMDB Rating.......: 7.3/10
Video Codec.......: XVID Release Date......: 10/06/11
Audio Codec.......: AC3 Theatre Date......: 08/04/11
Audio Bitrate.....: 384 Runtime.......: 1h 50mn
Subtitles.........: ENG WHEN NEEDED Language..........: ENGLISH
Resolution......: 1280 x 544 IMDb URL..........: http://www.imdb.com/title/tt0993842/


DETAILS:
Video
ID : 0
Format : MPEG-4 Visual
Format profile : Advanced [email protected]
Format settings, BVOP : 2
Format settings, QPel : No
Format settings, GMC : No warppoints
Format settings, Matrix : Default (MPEG)
Muxing mode : Packed bitstream
Codec ID : XVID
Codec ID/Hint : XviD
Duration : 1h 50mn
Bit rate : 3 208 Kbps
Width : 1 280 pixels
Height : 544 pixels
Display aspect ratio : 2.35:1
Frame rate : 23.976 fps
Color space : YUV
Chroma subsampling : 4:2:0
Bit depth : 8 bits
Scan type : Progressive
Compression mode : Lossy
Bits/(Pixel*Frame) : 0.192
Stream size : 2.49 GiB (87%)
Writing library : XviD 61

Audio
ID : 1
Format : AC-3
Format/Info : Audio Coding 3
Mode extension : CM (complete main)
Codec ID : 2000
Duration : 1h 50mn
Bit rate mode : Constant
Bit rate : 448 Kbps
Channel(s) : 6 channels
Channel positions : Front: L C R, Side: L R, LFE
Sampling rate : 48.0 KHz
Bit depth : 16 bits
Compression mode : Lossy
Stream size : 356 MiB (12%)
Alignment : Aligned on interleaves
Interleave, duration : 42 ms (1.00 video frame)

Plot;
A 16-year-old who was raised by her father to be the perfect assassin is dispatched on a mission across Europe, tracked by a ruthless intelligence agent and her operatives.

SOURCES:

VIDEO: .............. Hanna 2011 Blu-ray 1080p AVC DTS-HD 5.1 Thanx :D
AUDIO: .............. EP1C Thanx Mate :P

NOTES:
IMAGiNE bringing you another release..........
Hanna 2011 RC BDRiP.........
OK here we are with a nice Hanna for you :D
The source files were nice,
so we made a script to crop resize and so on......
Sharpened it up a bit and hardcoded english subs when needed :P
Now the source didnt have english audio,
so we used the audio from our R5
synced and remuxed to our encode :D
Enjoy Folks!
[/code]
SCREENS:
http://s014.radikal.ru/i327/1106/c4/009cdfe0e61b.jpg

http://i002.radikal.ru/1106/01/950dd5b699a0.jpg

http://i012.radikal.ru/1106/4e/a06937f65893.jpg

http://s48.radikal.ru/i120/1106/94/56a8200c1d88.jpg

http://s56.radikal.ru/i154/1106/78/8d43eef0079e.jpg

http://i066.radikal.ru/1106/91/0cc1c079ee25.jpg

Related torrents

Torrent NameAddedSizeSeedLeechHealth
1 Year+ - in Movies2.22 GB00
Verified torrent
1 Year+ - in Movies2.22 GB00
1 Year+ - in Movies2.71 GB00
Verified torrent
1 Year+ - in Movies2.57 GB01
1 Year+ - in Movies2.71 GB05

Comments (0 Comments)




Please login or create a FREE account to post comments

Latest Searches

| young for money | a new leaf hdtv | Blanco ep | Charlie Chan 720p | miles davis album | sapphire feu venus | Sharon short | Active KillDisk Professional Suite 9 1 5 0 Key | Mature EU 17 | mst3k zombie nightmare |