Quick Browse
Movies
TV shows
Music
Games
Applications
Anime
Other
Facebook
Advertising

Friends
Torrent Download
Movie4u
1337x.to
Torrent Downloads




Verified torrent Hanna 2011 CAM V2 XViD - IMAGiNE


    Seeders : 0      Leechers : 0
Hash :1B2E8AB69651B89979CEB10DF709A1922993DB9B
Added :1 Year+ by memory100Verified torrent uploader in Movies
Size :1.38 GB
Stream :WATCH ONLINE @ Movie4u


Hanna 2011 CAM V2 XViD - IMAGiNE
Free and Fast Download with Usenet 300GB+ free







Trackers List

Tracker NameLast CheckStatusSeedersLeechers




Torrent File Content (8 files)


Hanna 2011 CAM V2 XViD - IMAGiNE
     Budget seedboxs.txt -
44 bytes

     Hanna 2011 CAM V2 XViD - IMAGiNE SAMPLE.avi -
12.91 MB

     Hanna 2011 CAM V2 XViD - IMAGiNE.NFO -
5.07 KB

     Hanna 2011 CAM V2 XViD - IMAGiNE.avi -
1.37 GB

     NW RG.nfo -
12.96 KB

     Torrent downloaded from Demonoid.me.txt -
46 bytes

     dreamthe.net.txt -
91 bytes

     northernwarriors.net.txt -
135 bytes



Description



http://img696.imageshack.us/img696/5602/hannahv.jpg

[code]
Hanna 2011 CAM V2 XViD - IMAGiNE

Ripper ...........: IMAGiNE IMDB Rating.......: 7.8/10
Video Codec.......: XVID Release Date......: 11/05/11
Audio Codec.......: MP3 Theatre Date......: 08/04/11
Audio Bitrate.....: 128 Runtime.......: 1h 43mn
Subtitles.........: NIL Language..........: ENGLISH
Resolution......: 720 x 304 IMDb URL..........: http://www.imdb.com/title/tt0993842/


DETAILS:


Video
ID : 0
Format : MPEG-4 Visual
Format profile : Advanced [email protected]
Format settings, BVOP : 2
Format settings, QPel : No
Format settings, GMC : No warppoints
Format settings, Matrix : Default (MPEG)
Muxing mode : Packed bitstream
Codec ID : XVID
Codec ID/Hint : XviD
Duration : 1h 43mn
Bit rate : 1 759 Kbps
Width : 720 pixels
Height : 304 pixels
Display aspect ratio : 2.35:1
Frame rate : 25.000 fps
Color space : YUV
Chroma subsampling : 4:2:0
Bit depth : 8 bits
Scan type : Progressive
Compression mode : Lossy
Bits/(Pixel*Frame) : 0.321
Stream size : 1.27 GiB (93%)
Writing library : XviD 61

Audio
ID : 1
Format : MPEG Audio
Format version : Version 1
Format profile : Layer 3
Mode : Joint stereo
Mode extension : MS Stereo
Codec ID : 55
Codec ID/Hint : MP3
Duration : 1h 43mn
Bit rate mode : Constant
Bit rate : 128 Kbps
Channel(s) : 2 channels
Sampling rate : 44.1 KHz
Compression mode : Lossy
Stream size : 94.7 MiB (7%)
Alignment : Split accross interleaves
Interleave, duration : 40 ms (1.00 video frame)
Writing library : LAME3.98r

Plot:
A 16-year-old who was raised by her father to be the perfect assassin is dispatched on a mission across Europe, tracked by a ruthless intelligence agent and her operatives.

SOURCES:
VIDEO: KiNOPARK ...... Thanx Mate
AUDIO: LKRG .......... Thanx Matey

NOTES:
IMAGiNE bringing you another release..........

Alright here we go with our V2 cam of Hanna.....

The video was much improved over V1, thanx to KiNOPARK for the source files So, we made a script to crop, resize and sharpen....
Due to movement, several cuts were needed,then cropped rotated and resized and appended together.....

Next we ran a few filters to level out the colours.....

The audio is same from V1, synced and muxed to our encode.....

English subs hardcoded in yellow when needed And as always.....

Enjoy Folks!
[/code]
Screens:
http://img837.imageshack.us/img837/774/65999796.jpg

http://img687.imageshack.us/img687/8947/20219128.jpg

http://img809.imageshack.us/img809/4828/77090100.jpg

http://img848.imageshack.us/img848/7015/40280151.jpg

Related torrents

Torrent NameAddedSizeSeedLeechHealth
1 Good
1 Year+ - in Movies695.61 MB00
1 Year+ - in Movies3.27 GB00
1 Year+ - in Movies1.4 GB147
1 Year+ - in Movies1.4 GB47107
Verified torrent
1 Year+ - in Movies1.4 GB1,187770

Comments (0 Comments)




Please login or create a FREE account to post comments

Latest Searches

| Fitoor 2016 MP3 VBR 320Kbps Invincibl3 | giovanni mp4 | Eva Berger wetandpissy | pitbull trina go girl | financial magz newspapers | all moro | Perky Tits Nipples | i dont want to be | CD Jorge Mateus | all the cities |