Quick Browse
Movies
TV shows
Music
Games
Applications
Anime
Other
Facebook
Advertising

Friends
Torrent Download
Movie4u
1337x.to
Torrent Downloads




Verified torrent Hanna 2011 R5 DVDRip CLEANED XVID AC3 HQ Hive-CM8


    Seeders : 521      Leechers : 325
Hash :89EFD8B3F4B17AE135A5B92007B2D6EAD514E7C9
Added :1 Year+ by memory100Verified torrent uploader in Movies
Size :1.68 GB
Stream :WATCH ONLINE @ Movie4u


Hanna 2011 R5 DVDRip CLEANED XVID AC3 HQ Hive-CM8
Free and Fast Download with Usenet 300GB+ free







Trackers List

Tracker NameLast CheckStatusSeedersLeechers




Torrent File Content (9 files)


Hanna.2011.R5.DVDRip.CLEANED.XVID.AC3.HQ.Hive-CM8
     Budget seedboxs.txt -
44 bytes

     Hanna.2011.R5.DVDRip.CLEANED.XVID.AC3.HQ.Hive-CM8.avi -
1.68 GB

     Hanna.2011.R5.DVDRip.CLEANED.XVID.AC3.HQ.Hive-CM8.nfo -
5.38 KB

     NW RG.nfo -
12.96 KB

     Torrent downloaded from Demonoid.me.txt -
46 bytes

     dreamthe.net.txt -
91 bytes

     northernwarriors.net.txt -
135 bytes

     sample.avi -
6.8 MB

     sceneunderground.org.txt -
77 bytes



Description



http://img571.imageshack.us/img571/52/hannas.jpg

[code]
Hanna.2011.R5.DVDRip.CLEANED.XVID.AC3.HQ.Hive-CM8
Thx Hive

CM8 Doing It Right The First Time


Sources
Video: Russian DVD-9
Hanna.sovershennoe.oruzhie.2011.DVD9
Audio: EP1C
thx

Encode:
well that was a load of work. The Quality of the DVD was ok.
Added sharpness,chroma,rgb,denoise and brightness.
Audio had a static hiss and noise throughout, cleaned that best as possible. dont wanted to go over and remove more or the audio gets muffled, but its much better know.
Wasnt happy with the sync, was oose on various spots and it didnt meet my hiqh quality lipsync standard.
So i had to do a complete resync of the cleaned track.
Subs also delayed it a lot. The Russian DVD had russian subs for all foreign parts on the disc, so i extracted them to get the original timeframe places for the subs in the movie.
I translated all german parts myself, since i speak german no problem for me at all.
i took the arabic and spanish translation parts from EP1C´s version, hey i cant speak all languages
so thx for that parts.
looks very good now

btw i replaced the first 2 mins with the russian effects in the front channels since there is no voice, sounds much better at the introduction and you cant hear the remaining hiss right at the beginning

Like always my Audio fits on any direct-encode from the dvd-9
enjoy

Video: 720x304 @bitrate 1800 2pass
Audio: English AC3 5.1 @448
Sample: yes included
Subs: yes, english hardcoded when needed

http://www.imdb.com/title/tt0993842/

General
Complete name : Hanna.2011.R5.DVDRip.CLEANED.XVID.AC3.HQ.Hive-CM8.avi
Format : AVI
Format/Info : Audio Video Interleave
File size : 1.68 GiB
Duration : 1h 46mn
Overall bit rate : 2 257 Kbps
Writing application : Nandub v1.0rc2
Writing library : Nandub build 1853/release

Video
ID : 0
Format : MPEG-4 Visual
Format profile : Advanced [email protected]
Format settings, BVOP : 2
Format settings, QPel : Yes
Format settings, GMC : No warppoints
Format settings, Matrix : Default (H.263)
Muxing mode : Packed bitstream
Codec ID : XVID
Codec ID/Hint : XviD
Duration : 1h 46mn
Bit rate : 1 800 Kbps
Width : 720 pixels
Height : 304 pixels
Display aspect ratio : 2.35:1
Frame rate : 25.000 fps
Color space : YUV
Chroma subsampling : 4:2:0
Bit depth : 8 bits
Scan type : Progressive
Compression mode : Lossy
Bits/(Pixel*Frame) : 0.329
Stream size : 1.34 GiB (80%)
Writing library : XviD 1.2.1 (UTC 2008-12-04)

Audio
ID : 1
Format : AC-3
Format/Info : Audio Coding 3
Mode extension : CM (complete main)
Codec ID : 2000
Duration : 1h 46mn
Bit rate mode : Constant
Bit rate : 448 Kbps
Channel(s) : 6 channels
Channel positions : Front: L C R, Side: L R, LFE
Sampling rate : 48.0 KHz
Bit depth : 16 bits
Compression mode : Lossy
Stream size : 341 MiB (20%)
Alignment : Split accross interleaves
Interleave, duration : 40 ms (1.00 video frame)
Interleave, preload duration : 500 ms
Cast:
Saoirse Ronan as Hanna
Eric Bana as Erik
Cate Blanchett as Marissa
Tom Hollander as Isaacs
Paris Arrowsmith as CIA Tech #1
Olivia Williams as Rachel
Jason Flemyng as Sebastian
John MacMillan as Lewis

Plot:
A 16-year-old who was raised by her father to be the perfect assassin is dispatched
on a mission across Europe, tracked by a ruthless intelligence agent and her operatives.
[/code]
Screens:
http://img860.imageshack.us/img860/1879/hahamw.png

http://img32.imageshack.us/img32/5816/hahahaic.png

http://img840.imageshack.us/img840/3513/hahahahaue.png

http://img820.imageshack.us/img820/391/hahahahahax.png

http://img805.imageshack.us/img805/9421/hahahahahahaha.png

Related torrents

Torrent NameAddedSizeSeedLeechHealth
1 Year+ - in Movies1.68 GB23136
1 Year+ - in Movies1.59 GB00
1 Year+ - in Movies1.48 GB4,9006,084
1 Year+ - in Movies1.48 GB235357
1 Year+ - in Movies1.54 GB01

Comments (0 Comments)




Please login or create a FREE account to post comments

Latest Searches

| xxxtra b | beatles Songs From The Past Vol 3 | chris brown ft young | PixAndVideo 16 12 09 Mira Sunset Cure A Hangover With Sex | all about history year | adventures mark dreamer | captain america winter soldier chd | martina mcbride im gonna | Premier trio pour Maria | Amadeus rock |