Quick Browse
Movies
TV shows
Music
Games
Applications
Anime
Other
Facebook
Advertising

Friends
Torrent Download
Movie4u
1337x.to
Torrent Downloads




Verified torrent Hanna 2011 R5 LiNE AC3 XViD-EP1C


    Seeders : 2618      Leechers : 1037
Hash :670FD31877638FE3EDB67634E28B063D42ACBC29
Added :1 Year+ by memory100Verified torrent uploader in Movies
Size :1.38 GB
Stream :WATCH ONLINE @ Movie4u


Hanna 2011 R5 LiNE AC3 XViD-EP1C
Free and Fast Download with Usenet 300GB+ free







Trackers List

Tracker NameLast CheckStatusSeedersLeechers




Torrent File Content (9 files)


Hanna.2011.R5.LiNE.AC3.XViD-EP1C
     Budget seedboxs.txt -
44 bytes

     Hanna.2011.R5.LiNE.AC3.XViD-EP1C.avi -
1.37 GB

     Hanna.2011.R5.LiNE.AC3.XViD-EP1C.nfo -
3.76 KB

     NW RG.nfo -
12.96 KB

     Sample.avi -
9.23 MB

     Torrent downloaded from Demonoid.me.txt -
46 bytes

     dreamthe.net.txt -
91 bytes

     northernwarriors.net.txt -
135 bytes

     sceneunderground.org.txt -
77 bytes



Description



http://i.imgur.com/yxJvy.jpg

[code]
::File:: Hanna.2011.R5.LiNE.AC3.XViD-EP1C

::Video Source:: Hanna.sovershennoe.oruzhie.2011.DVD9

::Audio Source:: Own

::Subtitles::::: All There, in english

::Language:::::: English
::IMDB:::::::::: http://www.imdb.com/title/tt0993842/

A 16-year-old who was raised by her father to be the perfect assassin is dispatched on a mission across Europe, tracked by a ruthless intelligence agent and her operatives.

::Specs:::::::::
Format : AVI
Format/Info : Audio Video Interleave
File size : 1.37 GiB
Duration : 1h 46mn
Overall bit rate : 1 841 Kbps
Writing application : VirtualDubMod 1.5.10.2 (build 2542/release)
Writing library : VirtualDubMod build 2542/release

Video
ID : 0
Format : MPEG-4 Visual
Format profile : Advanced [email protected]
Format settings, BVOP : Yes
Format settings, QPel : No
Format settings, GMC : No warppoints
Format settings, Matrix : Default (H.263)
Muxing mode : Packed bitstream
Codec ID : XVID
Codec ID/Hint : XviD
Duration : 1h 46mn
Bit rate : 1 450 Kbps
Width : 720 pixels
Height : 304 pixels
Display aspect ratio : 2.35:1
Frame rate : 25.000 fps
Color space : YUV
Chroma subsampling : 4:2:0
Bit depth : 8 bits
Scan type : Progressive
Bits/(Pixel*Frame) : 0.265
Stream size : 1.08 GiB (79%)
Writing library : XviD 58

Audio
ID : 1
Format : AC-3
Format/Info : Audio Coding 3
Mode extension : CM (complete main)
Codec ID : 2000
Duration : 1h 46mn
Bit rate mode : Constant
Bit rate : 384 Kbps
Channel(s) : 6 channels
Channel positions : Front: L C R, Side: L R, LFE
Sampling rate : 48.0 KHz
Bit depth : 16 bits
Stream size : 292 MiB (21%)
Alignment : Split accross interleaves
Interleave, duration : 64 ms (1.60 video frames)
Interleave, preload duration : 500 ms

::NOTES:::::::::

Presenting the first R5 of Hanna, complete with subs and 5.1 surround sound.

Enjoy //EP1C
[/code]
Screens:
http://i.imgur.com/FfJ1H.png

http://i.imgur.com/EKyNZ.png

http://i.imgur.com/IFJWy.png

http://i.imgur.com/esktY.png

http://i.imgur.com/Zimtu.png

Related torrents

Torrent NameAddedSizeSeedLeechHealth
1 Year+ - in Movies1.38 GB00
1 Year+ - in Movies1.38 GB150163
Verified torrent
1 Year+ - in Movies1.38 GB00
1 Year+ - in Movies1.38 GB00
1 Comments
1 Good
Verified torrent
1 Year+ - in Movies1.38 GB286114

Comments (1 comment)




hansoff

Added 1 Year+
great copy...vid 10....aud...10..nice jobs thanx....
Please login or create a FREE account to post comments

Latest Searches

| American pie 8 | Divine Bitches Aiden Starr | vampire s08e02 diaries | blonde selfshot girl | vce exam 70 410 | dj scream | KHAMOSH PANI 2003 2CD DVDRip X264 AC3 5 1 DUS 7th Anniversary | the kitchen tv show | z stefanie | Adriana Chechik and Holly Hanna |