Quick Browse
TV shows

Latest Articles

Torrent Download
Free Movies
Torrent Downloads

Verified torrent Hanna 2011 R5 LiNE AC3 XViD-EP1C

    Seeders : 0      Leechers : 0

Hash :670FD31877638FE3EDB67634E28B063D42ACBC29
Added :1 Year+ by memory100Verified torrent uploader in Movies
Size :1.38 GB
Stream :Watch Online Full Movie @ Movie4u
Share :

Hanna 2011 R5 LiNE AC3 XViD-EP1C
Download Direct And Anonymously

Warning! Do not Download Torrents Without a VPN!
Your IP Address is .   And Location is
Your Internet Provider and Government can track your torrent Activity!  Hide your IP ADDRESS with a VPN!
We Strongly Recommend Using CyberGhost VPN to Anonymize your Torrenting.

Note :

Please Update (Trackers Info) Before Downloading Torrents to See Updated Seeders And Leechers for Batter Download Speed.

Trackers List

Tracker NameLast CheckStatusSeedersLeechers
udp://mgtracker.org:6969/announceLast Monthsuccess00
udp://tracker.trackerfix.com:80/announceLast Monthsuccess00
udp://glotorrents.pw:6969/announceLast Monthsuccess00
udp://tracker4.piratux.com:6969/announceLast Monthsuccess00
udp://tracker.blackunicorn.xyz:6969/announceLast Monthsuccess00
udp://p4p.arenabg.ch:1337/announceLast Monthsuccess00
udp://9.rarbg.to:2710/announceLast Monthsuccess00
udp://tracker.opentrackr.org:1337/announceLast Monthsuccess00
udp://tracker.mg64.net:6881/announceLast Monthsuccess00
udp://tracker.internetwarriors.net:1337/announceLast Monthsuccess00
udp://tracker.x4w.co:6969/announceLast Monthsuccess00
udp://tracker.sktorrent.net:6969/announceLast Monthsuccess00
http://tracker2.wasabii.com.tw:6969/announceLast Monthsuccess00
udp://tracker.mgtracker.org:2710/announceLast Monthsuccess00
http://tracker.opentrackr.org/announceLast Monthsuccess00
udp://tracker.zer0day.to:1337/announceLast Monthsuccess00
udp://tracker.vanitycore.co:6969/announceLast Monthsuccess00
udp://tracker.pirateparty.gr:6969/announceLast Monthsuccess00
udp://public.popcorn-tracker.org:6969/announceLast Monthsuccess00
udp://asnet.pw:2710/announceLast Monthsuccess00
http://tracker.trackerfix.com/announceLast Monthsuccess00
udp://ipv4.tracker.harry.lu:80/announceLast Monthsuccess00
udp://9.rarbg.me:2710/announceLast Monthsuccess00
udp://tracker.pomf.se:80/announceLast Monthsuccess00
udp://tracker.leechers-paradise.org:6969/announceLast Monthsuccess00
udp://tracker.coppersurfer.tk:6969/announceLast Monthsuccess00
http://bigfoot1942.sektori.org:6969/announceLast Monthsuccess00
http://announce.torrentsmd.com:6969/announceLast Monthsuccess00
udp://castradio.net:6969/announceLast Monthsuccess00
udp://explodie.org:6969/announceLast Monthsuccess00
udp://eddie4.nl:6969/announceLast Monthsuccess00

Torrent File Content (9 files)

     Budget seedboxs.txt -
44 bytes

     Hanna.2011.R5.LiNE.AC3.XViD-EP1C.avi -
1.37 GB

     Hanna.2011.R5.LiNE.AC3.XViD-EP1C.nfo -
3.76 KB

     NW RG.nfo -
12.96 KB

     Sample.avi -
9.23 MB

     Torrent downloaded from Demonoid.me.txt -
46 bytes

     dreamthe.net.txt -
91 bytes

     northernwarriors.net.txt -
135 bytes

     sceneunderground.org.txt -
77 bytes



::File:: Hanna.2011.R5.LiNE.AC3.XViD-EP1C

::Video Source:: Hanna.sovershennoe.oruzhie.2011.DVD9

::Audio Source:: Own

::Subtitles::::: All There, in english

::Language:::::: English
::IMDB:::::::::: http://www.imdb.com/title/tt0993842/

A 16-year-old who was raised by her father to be the perfect assassin is dispatched on a mission across Europe, tracked by a ruthless intelligence agent and her operatives.

Format : AVI
Format/Info : Audio Video Interleave
File size : 1.37 GiB
Duration : 1h 46mn
Overall bit rate : 1 841 Kbps
Writing application : VirtualDubMod (build 2542/release)
Writing library : VirtualDubMod build 2542/release

ID : 0
Format : MPEG-4 Visual
Format profile : Advanced [email protected]
Format settings, BVOP : Yes
Format settings, QPel : No
Format settings, GMC : No warppoints
Format settings, Matrix : Default (H.263)
Muxing mode : Packed bitstream
Codec ID : XVID
Codec ID/Hint : XviD
Duration : 1h 46mn
Bit rate : 1 450 Kbps
Width : 720 pixels
Height : 304 pixels
Display aspect ratio : 2.35:1
Frame rate : 25.000 fps
Color space : YUV
Chroma subsampling : 4:2:0
Bit depth : 8 bits
Scan type : Progressive
Bits/(Pixel*Frame) : 0.265
Stream size : 1.08 GiB (79%)
Writing library : XviD 58

ID : 1
Format : AC-3
Format/Info : Audio Coding 3
Mode extension : CM (complete main)
Codec ID : 2000
Duration : 1h 46mn
Bit rate mode : Constant
Bit rate : 384 Kbps
Channel(s) : 6 channels
Channel positions : Front: L C R, Side: L R, LFE
Sampling rate : 48.0 KHz
Bit depth : 16 bits
Stream size : 292 MiB (21%)
Alignment : Split accross interleaves
Interleave, duration : 64 ms (1.60 video frames)
Interleave, preload duration : 500 ms


Presenting the first R5 of Hanna, complete with subs and 5.1 surround sound.

Enjoy //EP1C





Related torrents

Torrent NameAddedSizeSeedLeechHealth
1 Year+ - in Movies1.38 GB00
1 Year+ - in Movies1.38 GB150163
Verified torrent
1 Year+ - in Movies1.38 GB00
1 Year+ - in Movies1.38 GB00
1 Good
Verified torrent
1 Year+ - in Movies1.38 GB286114

Note :

Feel free to post any comments about this torrent, including links to Subtitle, samples, screenshots, or any other relevant information. Please Dont Download anything from Comments, And Dont Post Links to Streaming Sites like Fmovies, Xmovies8, 123Movies, GoMovies, CMovieshd, Solarmovie, Watchfree, Putlockers, GoStream, m4ufree etc.

Comments (1 comment)


Added 1 Year+
great copy...vid 10....aud...10..nice jobs thanx....
Please login or create a FREE account to post comments

Latest Searches

| 2 nines | constantine s01e08 x264 | General Hospital March 5 | tarzan ita bluray | Stretch with me | Thor ragnarok 2017 bluray 1080p AVC DTS HD 7 1 x264 ETRG | Jacks Pov 5 Teagan Presley | lolla 39 | dorval | star wars clone wars 5 ita |