Quick Browse
Movies
TV shows
Music
Games
Applications
Anime
Other

Donate and Support

Friends
Torrents.me
Torrent Download
Free Movies
1337x
RARBG
Torrent Downloads

Verified torrent Hanna 2011 R5 XViD-IMAGiNE


    Seeders : 3      Leechers : 2
Hash :2E891C50D8C8A9D6F673166C783AEB0645707EC4
Added :1 Year+ by robyrsVerified torrent uploader in Movies
Size :827.57 MB
Stream :Watch Full Movies Online @ Movie4u
Share :


Hanna 2011 R5 XViD-IMAGiNE
Anonymous and Direct Download 300GB+ free







Warning! Do not Download Torrents Without a VPN!
Your IP Address is .   And Location is
Your Internet Provider and Government can track your torrent Activity!  Hide your IP ADDRESS with a VPN!
We Strongly Recommend Using SpyOFF Torrent VPN to Anonymize your Torrenting. It's FREE For 15 Days!

Note :

Please Update (Trackers Info) Before Downloading Torrents to See Updated Seeders And Leechers for Batter Download Speed.

Trackers List

Tracker NameLast CheckStatusSeedersLeechers




Torrent File Content (9 files)


Hanna 2011 R5 XViD-IMAGiNE
     Hanna 2011 R5 XViD-IMAGiNE.avi -
827.33 MB

     Subs[ENG].srt -
133.49 KB

     Hard Subs[Nynorsk] -
90.11 KB

     Image.jpeg -
11.15 KB

     Movie.nfo -
4.74 KB

     Torrent downloaded from Demonoid.me.txt -
49 bytes

     Torrent downloaded from Rarbg.txt -
29 bytes

     Torrents downloaded from Extratorrent.txt -
24 bytes

     Tracked_by_H33t_com.txt -
16 bytes



Description



http://leetleech.org/images/00455410500801312249.jpg

Hanna 2011 R5 XViD-IMAGiNE

http://www.imdb.com/title/tt0993842/

Format : AVI
Format/Info : Audio Video Interleave
Format profile : OpenDML
Duration : 1h 46mn
Overall bit rate : 2 006 Kbps
Writing application : VirtualDubMod 1.5.10.2 (build 2542/release)
Writing library : VirtualDubMod build 2542/release
Original source form : IMAGINE
Copyright : SIGISMUNT


Video
ID : 0
Format : MPEG-4 Visual
Format profile : [email protected]
Format settings, BVOP : Yes
Format settings, QPel : YES
Format settings, GMC : No warppoints
Format settings, Matrix : Default (H.263)
Duration : 1h 38mn
Bit rate : 1 552 Kbps
Width : 720 pixels
Height : 304 pixels
Display aspect ratio : 2.35:1
Frame rate : 23.976 fps
Resolution : 24 bits
Colorimetry : 4:2:0
Scan type : Progressive
Bits/(Pixel*Frame) : 0.296
Stream size : 1.07 GiB (87%)


Audio
ID : 1
Format : AC-3
Format/Info : Audio Coding 3
Codec ID : 2000
Duration : 1h 38mn
Bit rate mode : Constant
Bit rate : 448 Kbps
Channel(s) : 6 channels
Channel positions : Front: L C R, Surround: L R, LFE
Sampling rate : 48.0 KHz
Stream size : 316 MiB (22%)
Alignment : Aligned on interleaves
Interleave, duration : 64 ms (1.53 video frames)
Interleave, preload duration : 192 ms

Source:1080P AVC DTS-HD MA5.1 (perfect a/v/sync quality-sample is included)

*** HARD SUBS ***included (Nynorks)(Russian)

How To Get Your Fullspeed (uTorrent)(Btorrent)

Torrent Client - Preferences - Bandwidth - Number of connections - Set aprox. 500 for each
Torrent Client - Preferences - BiTorrent - Protocol Encryption - Forced
Bandwidth Allocation - High (Set download/upload limit - Unlimited)
Stop Other Active Torrents - Start downloading and wait for connections.
Enjoy and Seed for at least 1:1 ratio. Don't forget to say thanks/leave reviews.
Before downloading you should check/google search sample "release name""sample".
Greets to all actual/future p2p/scene QUALITY groups and affiliate websites.
Don't trust IMDb robot or bad ratings,always watch some trailers first.
Ignore stupid comments/fake/mislabeled/no-DVDrips/CAM/TS/RAR uploads.
Please spread this release/torrent to your friends/forums/etc.
If you need translation subs visit some subtitles sites.
Report if you see online streaming or other spam links.
Recommended movie player VLC PLAYER.

http://leetleech.org/images/76183147882119488183.jpg

http://leetleech.org/images/89355504499312048617.jpg

Related torrents

Torrent NameAddedSizeSeedLeechHealth
1 Year+ - in Movies1.36 GB01
1 Year+ - in Movies1.38 GB00
1 Year+ - in Movies1.38 GB10
1 Year+ - in Movies1.32 GB573753
1 Year+ - in Movies380.37 MB22

Comments (0 Comments)




Please login or create a FREE account to post comments

Latest Searches

| S04E17 x265 psa | Carambola | abril kay | lee pain | Strippers Love Anal Brazzers | Secrets of the Dead ear | All Chicks No Dicks | dvdr o imbativel 4 | BankChor 2017 | twin peaks the return 8 |