Quick Browse
Movies
TV shows
Music
Games
Applications
Anime
Other
Facebook
Advertising

Friends
Torrent Download
Movie4u
1337x.to
Torrent Downloads




Hannah.Montana.The.Movie.2009.iTALiAN.MD.DVDRip.XviD-SiLENT[uf][Ultima Frontiera].torrent


    Seeders : 0      Leechers : 0

Trackers List

Tracker NameLast CheckStatusSeedersLeechers




Torrent File Content (1 file)


     Hannah.Montana.The.Movie.2009.iTALiAN.MD.DVDRip.XviD-SiLENT.avi -
674.17 MB



Description



NUOVA VERSIONE
SOSTITUISCE LE PRECEDENTI MD.TS E MD.DVDSCR DI SiLENT



http://i35.tinypic.com/23vevc8.jpg


http://img11.imageshack.us/img11/6209/hannahmontanathemovieus.jpg



http://i36.tinypic.com/2wlzn9f.jpg


Titolo: Hannah Montana: The Movie
Paese, Anno:USA, 2009
Regia: Peter Chelsom
Genere:Commedia Musicale
Produzione: Millar Gough Ink, Walt Disney Pictures


http://i34.tinypic.com/301n9ec.jpg


Miley Cyrus, Emily Osment, Tyra Banks, Melora Hardin, Jason Earles, Adam Gregory, Vanessa Williams, Mitchel Musso, Taylor Swift, Billy Ray Cyrus


http://i33.tinypic.com/2ldeeyr.jpg


Miley Stewart cerca di destreggiarsi fra la scuola, gli amici e la sua identità segreta di pop-star; ma quando la crescente popolarità di Hannah Montana minaccia di prendere il sopravvento sulla sua vita, la ragazza non sa più cosa fare. Interviene suo padre, che decide di portare Miley nella cittadina di Crowley Corners, nel Tennesse, per aiutarla a ritrovare il contatto con la realtà; lì Miley si lancia in una avventura divertente e romantica che neanche Hannah Montana avrebbe mai immaginato di vivere.


http://i38.tinypic.com/2ihuvd2.jpg


Positivi, generosi sentimenti verso gli altri e la riscoperta delle proprie origini rurali possono salvare un minorenne - divenuto celebre - dai pericolosi effetti del successo. Adattamento dell'omonima, popolare serie televisiva, "Hannah Montana – il film" per dare maggior efficacia al messaggio coinvolge Miley Cyrus, la vera protagonista TV, la "pop star" adolescente più famosa al mondo, e Billy Ray Cyrus, noto cantante, facendo interpretare loro i ruoli di padre e figlia come nella realtà.

La piccola è già abituata a folle di ragazzini urlanti per lei, stuoli di fotografi, richieste di autografi in strada, ed ha anche garantiti una manager personale ("tu pensa a cantare, a tutto il resto ci penso io"), shopping gratuito nei negozi di moda, un jet privato. Con una percezione paradisiaca dell'esistenza e le idee chiare sullo "show business", è così viziata da costringere un allarmato genitore al suo servizio ("non so più chi ho davanti") a portarla a riprendere contatto con la natia, genuina semplicità contadina nella fattoria della nonna in Tennessee.

Riservando dispettosi incidenti da comicità "slapstick" all’avvoltoio-giornalista di una rivista "gossip" a caccia di eventuali segreti della giovane degni di scandalo, il regista Peter Chelsom si rivolge ai coetanei di Miley dando centralità formative alla famiglia e alla comunità di provincia (la vita di campagna è però rappresentata con una tale cura formale da apparire finta) rispetto alle soverchianti, deleterie dinamiche del mondo dello spettacolo. Se artisticamente i momenti più piacevoli sono nel brano "hip hop" suonato con strumenti "country" e nei titoli di coda da fuori scena di un "musical", a risultare ambigua è la soluzione da compromesso: nell'"outing" sul palco, durante il concerto davanti alla propria gente, è lo stesso pubblico a chiedere a Miley di continuare ad essere anche il suo personaggio.

La frase: "Vola solo da Ovest a Est. Lo fa per rimanere giovane".

[code]
General
Complete name : Cine/Hannah.Montana.The.Movie.2009.iTALiAN.MD.DVDRip.XviD-SiLENT.avi
Format : AVI
Format/Info : Audio Video Interleave
File size : 674 MiB
Duration : 1h 42mn
Overall bit rate : 921 Kbps

Video
ID : 0
Format : MPEG-4 Visual
Format profile : [email protected]
Format settings, BVOP : Yes
Format settings, QPel : No
Format settings, GMC : No warppoints
Format settings, Matrix : Default (H.263)
Codec ID : XVID
Codec ID/Hint : XviD
Duration : 1h 42mn
Bit rate : 789 Kbps
Width : 592 pixels
Height : 320 pixels
Display aspect ratio : 1.850
Frame rate : 23.976 fps
Resolution : 24 bits
Colorimetry : 4:2:0
Scan type : Progressive
Bits/(Pixel*Frame) : 0.174
Stream size : 577 MiB (86%)
Writing library : XviD 1.3.0.dev55

Audio
ID : 1
Format : MPEG Audio
Format version : Version 1
Format profile : Layer 3
Codec ID : 55
Codec ID/Hint : MP3
Duration : 1h 42mn
Bit rate mode : Variable
Bit rate : 120 Kbps
Nominal bit rate : 128 Kbps
Channel(s) : 2 channels
Sampling rate : 48.0 KHz
Resolution : 16 bits
Stream size : 87.6 MiB (13%)
Alignment : Aligned on interleaves
Interleave, duration : 24 ms (0.58 video frame)
Interleave, preload duration : 386 ms
Writing library : LAME3.99a
Encoding settings : -m j -V 4 -q 3 -lowpass 17 --abr 128
[/code]


http://i38.tinypic.com/34hbbjr.jpg


http://www.youtube.com/watch?v=fkbK2CFibew


http://i36.tinypic.com/3313qfa.jpg


AUDIO: 6.5
VIDEO: 9.0


http://i36.tinypic.com/vhygqe.jpg


NUOVA VERSIONE
SOSTITUISCE LE PRECEDENTI MD.TS E MD.DVDSCR DI SiLENT




Related torrents

Torrent NameAddedSizeSeedLeechHealth
1 Year+ - in Movies3.15 KB312
1 Year+ - in Movies683.91 MB1223,451
1 Year+ - in Movies683.91 MB186559
1 Year+ - in Movies674.17 MB8162
1 Year+ - in Other91 bytes10

Comments (0 Comments)




Please login or create a FREE account to post comments

Latest Searches

| of mice and of men | morning star brown | avas possessions 2015 720p web dl dd5 1 h264 fgt | baduizm 320 | Cheating GF has sex with | Zeppelin all | Mature nl Sofia 54 | beatport 2016 december | lock and key cbr | i ant fuckn with you |