Quick Browse
Movies
TV shows
Music
Games
Applications
Anime
Other
Facebook
Advertising

Friends
Torrent Download
Movie4u
1337x.to
Torrent Downloads




Verified torrent Happy Days~DVDRIP~Striker~TDA


    Seeders : 0      Leechers : 2
Hash :B8EDF6F7F7D608405E7379876CAD2FB407E5A17C
Added :1 Year+ by striker123Verified torrent uploader in Movies
Size :1.46 GB
Stream :WATCH ONLINE @ Movie4u


Happy Days~DVDRIP~Striker~TDA
Free and Fast Download with Usenet 300GB+ free







Trackers List

Tracker NameLast CheckStatusSeedersLeechers




Torrent File Content (4 files)


Happy Days~1CD~DVDRIP~Striker~TDA
     Happy Days~1CD~DVDRIP~Striker~TDA.avi -
1.46 GB

     TeamTDA.jpg -
681.47 KB

     More Movies.url -
112 bytes

     Tracked By DesiAdda.com.txt -
23 bytes



Description



http://2.bp.blogspot.com/_P3By5wOrOYQ/RxXsp-F_XCI/AAAAAAAAAMc/VjefDnpEqLw/s400/happydays1280.jpg


http://www.imagefreeks.com/images/striker/eamtdabanner.jpg


http://www.imagefreeks.com/images/striker/ileinfo.png


[CODE]
General

Format : AVI
Format/Info : Audio Video Interleave
File size : 1.46 GiB
Duration : 2h 39mn
Overall bit rate : 1 306 Kbps
Writing application : VirtualDubMod 1.5.10.2 (build 2540/release)
Writing library : VirtualDubMod build 2540/release

Video
ID : 0
Format : MPEG-4 Visual
Format profile : [email protected]
Format settings, BVOP : Yes
Format settings, QPel : Yes
Format settings, GMC : No warppoints
Format settings, Matrix : Default (H.263)
Codec ID : XVID
Codec ID/Hint : XviD
Duration : 2h 39mn
Bit rate : 1 182 Kbps
Width : 672 pixels
Height : 304 pixels
Display aspect ratio : 2.2:1
Frame rate : 23.976 fps
Resolution : 24 bits
Colorimetry : 4:2:0
Scan type : Progressive
Bits/(Pixel*Frame) : 0.241
Stream size : 1.32 GiB (90%)
Writing library : XviD 1.2.0.dev47 (UTC 2006-11-01)

Audio
ID : 1
Format : MPEG Audio
Format version : Version 1
Format profile : Layer 3
Codec ID : 55
Codec ID/Hint : MP3
Duration : 2h 39mn
Bit rate mode : Variable
Bit rate : 112 Kbps
Minimum bit rate : 32.0 Kbps
Channel(s) : 2 channels
Sampling rate : 48.0 KHz
Resolution : 16 bits
Stream size : 128 MiB (9%)
Alignment : Aligned on interleaves
Interleave, duration : 24 ms (0.58 video frame)
Interleave, preload duration : 546 ms
Writing library : LAME3.98a
Encoding settings : -m j -V 4 -q 0 -lowpass 17.5 --vbr-new -b 32


[/CODE]

http://www.imagefreeks.com/images/striker/screens.png


http://www.imagefreeks.com/images/shahaz/appydays1cddvdripstrikertda.jpg


http://www.imagefreeks.com/images/striker/ownload.png

Related torrents

Torrent NameAddedSizeSeedLeechHealth
1 Year+ - in Movies2.06 GB154
1 Year+ - in Movies300.37 MB10
1 Year+ - in Movies494.02 MB84
1 Year+ - in Movies693.52 MB22

Comments (0 Comments)




Please login or create a FREE account to post comments

Latest Searches

| ash s02e09 720p | let s switch | Smallville S09E17 720p | mike and dave un matrimonio da sballo | adobe bridge 5 | ai yori aoshi s01e01 12 xvid jap mp3 hadsub ita | karen semen | Iron Man 3 2013 1080P BRRip H264 ETRG | the legend of zorro 2 dual audio | spiderman dvd9 ita |