Quick Browse
Movies
TV shows
Music
Games
Applications
Anime
Other
Facebook
Advertising

Friends
Torrent Download
Movie4u
1337x.to
Torrent Downloads




Verified torrent Happy Feet 2 2011 720p BRRip Xvid AC3-26k


    Seeders : 1      Leechers : 0
Hash :42C04E72FAA01D3D623FE99179439ABC02B67D2E
Added :1 Year+ by memory100Verified torrent uploader in Movies
Size :2.45 GB
Stream :WATCH ONLINE @ Movie4u


Happy Feet 2 2011 720p BRRip Xvid AC3-26k
Free and Fast Download with Usenet 300GB+ free







Trackers List

Tracker NameLast CheckStatusSeedersLeechers




Torrent File Content (12 files)


Happy Feet 2 2011 720p BRRip Xvid AC3-26k
     1.png -
847.47 KB

     2.png -
1.02 MB

     26k nfo.nfo -
3.58 KB

     3.png -
837.58 KB

     4.png -
999.25 KB

     att-networks.com.txt -
39 bytes

     Happy Feet 2 2011 720p BRRip Xvid AC3-26k.avi -
2.45 GB

     Happy Feet 2 2011 720p BRRip Xvid AC3-26k.jpg -
187.88 KB

     HDSceneRG.txt -
115 bytes

     sceneunderground.org.txt -
77 bytes

     Torrent downloaded from Demonoid.me.txt -
46 bytes

     Torrent downloaded from rarbg.com.txt.txt -
0 bytes



Description



http://i.imgur.com/00KA3.jpg

[code]
Happy Feet 2 2011 720p BRRip Xvid AC3-26k


Plot:
Mumble's son, Erik, is struggling to realize his talents in the Emperor Penguin world. Meanwhile, Mumble and his family
and friends discover a new threat their home -- one that will take everyone working together to save them

Sources - Happy.Feet.Two.2011.720p.BluRay.x264-Felony...Thanks :P

Format : AVI
Format/Info : Audio Video Interleave
Format profile : OpenDML
File size : 2.45 GiB
Duration : 1h 39mn
Overall bit rate : 3 524 Kbps
Writing library : VirtualDub build 32839/release

Video
ID : 0
Format : MPEG-4 Visual
Format profile : Advanced [email protected]
Format settings, BVOP : 1
Format settings, QPel : No
Format settings, GMC : No warppoints
Format settings, Matrix : Default (H.263)
Codec ID : XVID
Codec ID/Hint : XviD
Duration : 1h 39mn
Bit rate : 3 000 Kbps
Width : 1 280 pixels
Height : 536 pixels
Display aspect ratio : 2.40:1
Frame rate : 23.976 fps
Color space : YUV
Chroma subsampling : 4:2:0
Bit depth : 8 bits
Scan type : Progressive
Compression mode : Lossy
Bits/(Pixel*Frame) : 0.182
Stream size : 2.09 GiB (85%)
Writing library : XviD 1.2.1 (UTC 2008-12-04)

Audio
ID : 1
Format : AC-3
Format/Info : Audio Coding 3
Mode extension : CM (complete main)
Codec ID : 2000
Duration : 1h 39mn
Bit rate mode : Constant
Bit rate : 512 Kbps
Channel(s) : 6 channels
Channel positions : Front: L C R, Side: L R, LFE
Sampling rate : 48.0 KHz
Bit depth : 16 bits
Compression mode : Lossy
Stream size : 364 MiB (15%)
Alignment : Split accross interleaves
Interleave, duration : 42 ms (1.00 video frame)
Interleave, preload duration : 500 ms



Notes -
Did my thing... :)
[/code]

Screens:
http://i.imgur.com/g6jKz.jpg

http://img715.imageshack.us/img715/4712/52180889.jpg

http://img542.imageshack.us/img542/1073/39969740.jpg

http://img826.imageshack.us/img826/689/40849030.jpg

http://img442.imageshack.us/img442/1733/33673312.jpg

http://img208.imageshack.us/img208/9350/happpy2.png


Alternative screens:
http://www.imageporter.com/37ztrh4jcsrf/4.jpg.html
http://imgdepot.org/show/20120225/2/354094_3.jpg
http://dippic.com/548n8dmd2p1p
http://www.hotimg.com/image/yVzQ4gf

Greetz:
Xtreme Encode|FYA|ILLUMANTI|CM8|RX|VISI​ON|HDSCENE|xTriLL|DTRG|CRYS|REMIX​HD|BIDA|RX|REFILL|INSPiRAL|SIC|HO​PE|Anonymous|GooN
To all the people who have helped me you know who you are

Anything to offer email us @: [email protected]


http://img851.imageshack.us/img851/5503/26ks.jpg

Thank you smallz for banner!

Related torrents

Torrent NameAddedSizeSeedLeechHealth
Verified torrent
1 Year+ - in Movies1.75 GB10
1 Year+ - in Movies2.19 GB00
1 Year+ - in Movies2.91 GB212
1 Year+ - in Movies1.37 GB00
1 Year+ - in Movies1.52 GB240

Comments (0 Comments)




Please login or create a FREE account to post comments

Latest Searches

| Digital Playground Stoya Sexual Freak 7 | Female Fake Taxi Angel Long Roxi Keogh | Taylor swift Red DELUXE EDITION | XIII The Conspiracy 2008 | walking dead s07e07 1080p | stork hevc | T cell Development | 2015 o p m | Java The Complete Reference 7th Edition DwzRG | beatport deep house top 100 october 2016 |