Quick Browse
Movies
TV shows
Music
Games
Applications
Anime
Other
Facebook
Advertising

Friends
Torrent Download
Movie4u
1337x.to
Torrent Downloads




Verified torrent Happy Feet 2 2011 DVDRip XViD AC3-26k


    Seeders : 1      Leechers : 0
Hash :9A39A81703F25FE265D2B527B8DC439406F3B523
Added :1 Year+ by memory100Verified torrent uploader in Movies
Size :1.67 GB
Stream :WATCH ONLINE @ Movie4u


Happy Feet 2 2011 DVDRip XViD AC3-26k
Free and Fast Download with Usenet 300GB+ free







Trackers List

Tracker NameLast CheckStatusSeedersLeechers




Torrent File Content (13 files)


Happy Feet 2.2011.DVDRip.XViD.AC3-26k
     1.png -
520.13 KB

     2.png -
422.58 KB

     3.png -
369.26 KB

     4.png -
316.94 KB

     att-networks.com.txt -
39 bytes

     Happy Feet 2.2011.DVDRip.XViD.AC3-26k.avi -
1.66 GB

     Happy Feet 2.2011.DVDRip.XViD.AC3-26k.jpg -
185.58 KB

     Happy Feet 2.2011.DVDRip.XViD.AC3-26k.nfo -
3.37 KB

     HDSceneRG.txt -
115 bytes

     sample.avi -
7.23 MB

     sceneunderground.org.txt -
77 bytes

     Torrent downloaded from Demonoid.me.txt -
46 bytes

     Torrent downloaded from rarbg.com.txt.txt -
0 bytes



Description



http://img26.imageshack.us/img26/6948/happpyy.jpg

[code]
Happy Feet 2.2011.DVDRip.XViD.AC3-26k

http://www.imdb.com/title/tt1402488/

Plot:
Mumble's son, Erik, is struggling to realize his talents in the Emperor Penguin world. Meanwhile,

Mumble and his family
and friends discover a new threat their home -- one that will take everyone working together to save

them

Sources - Happy Feet Two 2011 DVDR-BORGATA...Thanks :P

Format : AVI
Format/Info : Audio Video Interleave
File size : 1.66 GiB
Duration : 1h 39mn
Overall bit rate : 2 391 Kbps

Video
ID : 0
Format : MPEG-4 Visual
Format profile : Advanced [email protected]
Format settings, BVOP : 1
Format settings, QPel : No
Format settings, GMC : No warppoints
Format settings, Matrix : Default (H.263)
Codec ID : XVID
Codec ID/Hint : XviD
Duration : 1h 39mn
Bit rate : 2 000 Kbps
Width : 720 pixels
Height : 304 pixels
Display aspect ratio : 2.35:1
Frame rate : 23.976 fps
Color space : YUV
Chroma subsampling : 4:2:0
Bit depth : 8 bits
Scan type : Progressive
Compression mode : Lossy
Bits/(Pixel*Frame) : 0.381
Stream size : 1.39 GiB (84%)
Writing library : XviD 1.2.1 (UTC 2008-12-04)

Audio
ID : 1
Format : AC-3
Format/Info : Audio Coding 3
Mode extension : CM (complete main)
Codec ID : 2000
Duration : 1h 39mn
Bit rate mode : Constant
Bit rate : 384 Kbps
Channel(s) : 6 channels
Channel positions : Front: L C R, Side: L R, LFE
Sampling rate : 48.0 KHz
Bit depth : 16 bits
Compression mode : Lossy
Stream size : 273 MiB (16%)
Alignment : Aligned on interleaves
Interleave, duration : 64 ms (1.53 video frames)
Interleave, preload duration : 192 ms

Notes -
Crop, resize, slight denoise and sharpen.. enjoy... :)

Greetz:
Xtreme

Encode|FYA|ILLUMANTI|CM8|RX|VISI​ON|HDSCENE|xTriLL|DTRG|CRYS|REMIX​HD|BIDA|RX|REFILL|INSPiRAL|SIC|HO​P

E|Anonymous|GooN
To all the people who have helped me you know who you are

Anything to offer email us @: [email protected]
[/code]
Screens:
http://i.imgur.com/jEoaJ.png

http://i.imgur.com/NEAGq.jpg

http://img707.imageshack.us/img707/5392/70344738.png

http://img534.imageshack.us/img534/8392/16208413.png

http://img821.imageshack.us/img821/6458/70041279.png


Alternative screens:
http://imgdepot.org/show/20120224/2/98396_3.png
http://www.imageporter.com/1gh7buazcjcn/3.png
http://dippic.com/ua93qil2ar52
http://www.hotimg.com/image/hsXt5MT

http://img851.imageshack.us/img851/5503/26ks.jpg

Thank you smallz for banner!

Related torrents

Torrent NameAddedSizeSeedLeechHealth
1 Year+ - in Movies1.86 GB00
Verified torrent
1 Year+ - in Movies1.89 GB00
Verified torrent
1 Year+ - in Movies775.88 MB10
1 Year+ - in Movies1.72 GB00
1 Year+ - in Movies1.51 GB00

Comments (0 Comments)




Please login or create a FREE account to post comments

Latest Searches

| rachel roxxx and sienna west | Caribbean 120916 001 | lacey young restless | j cole your eyes a | all movie | Multiplicity1996 | amateur calendar audition | Rev James C | BBC leah | powderfinger odyssey 5 |