Quick Browse
Movies
TV shows
Music
Games
Applications
Anime
Other

Donate and Support

Friends
Torrents.me
Torrent Download
Free Movies
1337x
RARBG
Torrent Downloads

Verified torrent Happy Feet Two (2011) DVDRip XviD-MAX


    Seeders : 1      Leechers : 0
Hash :760FC5FF1E0D43515923272E9F97C0FC0A258B64
Added :1 Year+ by robyrsVerified torrent uploader in Movies
Size :1.07 GB
Stream :Watch Full Movies Online @ Movie4u
Share :


Happy Feet Two (2011) DVDRip XviD-MAX
Anonymous and Direct Download 300GB+ free







Warning! Do not Download Torrents Without a VPN!
Your IP Address is .   And Location is
Your Internet Provider and Government can track your torrent Activity!  Hide your IP ADDRESS with a VPN!
We Strongly Recommend Using SpyOFF Torrent VPN to Anonymize your Torrenting. It's FREE For 15 Days!

Note :

Please Update (Trackers Info) Before Downloading Torrents to See Updated Seeders And Leechers for Batter Download Speed.

Trackers List

Tracker NameLast CheckStatusSeedersLeechers




Torrent File Content (7 files)


Happy Feet Two (2011) DVDRip XviD-MAX
     Happy Feet Two (2011) DVDRip XviD-MAXSPEED www.torentz.3xforum.ro.avi -
1.05 GB

     Sub FILE compress.sub -
14.7 MB

     RUS.srt -
80.95 KB

     German.srt -
80.95 KB

     French.srt -
64.92 KB

     Happy Feet Two (2011) DVDRip XviD-MAX.nfo -
2.7 KB

     Torrent downloaded from Suprnova.me.txt -
42 bytes



Description



Happy Feet Two (2011) DVDRip XviD-MAXSPEED
Format : AVI
Format/Info : Audio Video Interleave
Format profile : OpenDML
Duration : 1h 28mn
Overall bit rate : 1 390 Kbps
Writing application : VirtualDubMod 1.5.10.2 (build 2542/release)
Writing library : VirtualDubMod build 2542/release
Original source form : MAX TORRENTZ
Copyright : SIGISMUNT

Video
ID : 0
Format : MPEG-4 Visual
Format profile : [email protected]
Format settings, BVOP : Yes
Format settings, QPel : No
Format settings, GMC : No warppoints
Format settings, Matrix : Default (MPEG)
Codec ID : XVID
Codec ID/Hint : XviD
Duration : 1h 28mn
Bit rate : 1 189 Kbps
Width : 640 pixels
Height : 272 pixels
Display aspect ratio : 2.35:1
Frame rate : 23.976 fps
Resolution : 24 bits
Colorimetry : 4:2:0
Scan type : Progressive
Bits/(Pixel*Frame) : 0.285
Stream size : 1 008 MiB (86%)
Writing library : XviD 1.2.1 (UTC 2008-12-04)

Audio
ID : 1
Format : MPEG Audio
Format version : Version 1
Format profile : Layer 3
Codec ID : 123
Codec ID/Hint : MP3
Duration : 1h 28mn
Bit rate mode : Constant
Bit rate : 192 Kbps
Channel(s) : 2 channels
Sampling rate : 48.0 KHz
Resolution : 16 bits
Stream size : 183 MiB (23%)
Alignment : Aligned on interleaves
Interleave, duration : 24 ms (0.58 video frame)
Interleave, preload duration : 384 ms
Writing library : LAME3.96.1

Source: DVD (perfect a/v/sync quality,sample included)
This torrent is not seedbox supported,please seed it to the MAX

NOTE

BE AWARE OF BOGUS SITES , FAKE FILES AND
STUPID SPAMMERS DOWNLOAD ALWAYS YOUR MAX DATA FROM OUR SITE
http://www.torentz.3xforum.ro/topic/4/MAX_TORRENTZ/

Recommended player for all our movies
http://www.videolan.org/vlc/

REMEMBER: GOD DEMANDS LOVE,SEEDS,PEERS AND A FAIR TORRENT RATIO

Copyright © WWW.TORENTZ.3XFORUM.RO

Related torrents

Torrent NameAddedSizeSeedLeechHealth
Verified torrent
1 Year+ - in Movies1.06 GB116
5 days ago - in Movies1.51 GB11
13 days ago - in Other681.2 MB00
11 months ago - in Movies8.1 GB00
1 Year+ - in Movies3.33 GB00

Comments (0 Comments)




Please login or create a FREE account to post comments

Latest Searches

| tu y yo feat daddy | 2016 turbotax premier | jahmiel r | american slut legalporno | real time with bill maher 2017 06 23 | Real Time With Bill Maher 2017 06 23 720p HDTV X264 UAV | it so t | Machine Gun Kelly Bad Things | Girl U Want Devo | pokemon seasons 4 complete |