Quick Browse
Movies
TV shows
Music
Games
Applications
Anime
Other
Facebook
Advertising

Friends
Torrent Download
Movie4u
1337x.to
Torrent Downloads




Verified torrent Happy Feet Two 2011 DVDSCR XviD AC3-26K


    Seeders : 0      Leechers : 0
Hash :1BD2B66651EDFE6DA7E16ED3BA97F5D0D56AA809
Added :1 Year+ by memory100Verified torrent uploader in Movies
Size :1.89 GB
Stream :WATCH ONLINE @ Movie4u


Happy Feet Two 2011 DVDSCR XviD AC3-26K
Free and Fast Download with Usenet 300GB+ free







Trackers List

Tracker NameLast CheckStatusSeedersLeechers




Torrent File Content (7 files)


Happy Feet Two 2011 DVDSCR XviD AC3-26K
     HDSceneRG.txt -
115 bytes

     Happy Feet 2 2011 DVDSCR XviD AC3-26K.nfo -
3.49 KB

     Happy Feet Two 2011 DVDSCR XviD AC3-26K.avi -
1.86 GB

     Torrent downloaded from Demonoid.me.txt -
46 bytes

     att-networks.com.txt -
39 bytes

     sample.avi -
34.31 MB

     sceneunderground.org.txt -
77 bytes



Description



http://img26.imageshack.us/img26/5561/happyfeeta.jpg

[code]
Happy Feet 2 2011 DVDSCR XviD AC3-26K

Imdb:
http://www.imdb.com/title/tt1402488/

Plot:
Mumble's son, Erik, is struggling to realize his talents in the Emperor Penguin world. Meanwhile, Mumble

and his family and friends discover a new threat their home -- one that will take everyone working

together to save them.

Sources:
DVDr NSTC THNXS!! thnxs for hope for giving the files much thnxs bro!

Notes:
ENJOY VERY NICE DVDSCR CROPPED OUT BLACK BORDERS AND ENCODED WITH FILTERS ENJOY :p
AUDIO IS 6 CHANNELS SO ENJOY !

Greetz:
Xtreme

Encode|FYA|ILLUMANTI|CM8|RX|VISION|HDSCENE|NIGHTMAREZ|xTriLL|DTRG|CRYS|REMIXHD|BIDA|RX|REFILL|INSPiRAL|S

IC|ZOMBIESZ|HOPE
To all the people who have helped me :P you know who you are

Anything to offer email us @: [email protected]

Video
ID : 0
Format : MPEG-4 Visual
Format profile : Advanced [email protected]
Format settings, BVOP : 1
Format settings, QPel : No
Format settings, GMC : No warppoints
Format settings, Matrix : Custom
Codec ID : XVID
Codec ID/Hint : XviD
Duration : 1h 40mn
Bit rate : 2 192 Kbps
Width : 720 pixels
Height : 320 pixels
Display aspect ratio : 2.25:1
Frame rate : 23.976 fps
Color space : YUV
Chroma subsampling : 4:2:0
Bit depth : 8 bits
Scan type : Progressive
Compression mode : Lossy
Bits/(Pixel*Frame) : 0.397
Stream size : 1.54 GiB (83%)
Writing library : XviD 64

Audio
ID : 1
Format : AC-3
Format/Info : Audio Coding 3
Mode extension : CM (complete main)
Codec ID : 2000
Duration : 1h 40mn
Bit rate mode : Constant
Bit rate : 448 Kbps
Channel(s) : 6 channels
Channel positions : Front: L C R, Side: L R, LFE
Sampling rate : 48.0 KHz
Bit depth : 16 bits
Compression mode : Lossy
Delay relative to video : 33ms
Stream size : 322 MiB (17%)
Alignment : Split accross interleaves
Interleave, duration : 96 ms (2.30 video frames)
Interleave, preload duration : 96 ms
Language : English

[/code]
Screens:
http://img407.imageshack.us/img407/7900/vlcsnap2012012013h58m36.png

http://img829.imageshack.us/img829/8533/vlcsnap2012012013h58m43.png

http://img705.imageshack.us/img705/3766/vlcsnap2012012013h58m53.png

http://img263.imageshack.us/img263/2738/vlcsnap2012012013h58m59.png



http://img851.imageshack.us/img851/5503/26ks.jpg

Thank you smallz for banner!

Related torrents

Torrent NameAddedSizeSeedLeechHealth
1 Year+ - in Movies1.86 GB00
1 Year+ - in Movies1.86 GB04
1 Year+ - in Movies1.36 GB03
1 Year+ - in Movies712.27 MB02
1 Year+ - in Movies1.41 GB00

Comments (0 Comments)




Please login or create a FREE account to post comments

Latest Searches

| O N I F C Deluxe | pc bus driver game | Cheap Thrills feat Sean Paul Single | Sweet Sinner Brothers And Sisters | Avengers Age of Ultron 2015 HDTS x264 MkvCage | Gang Me Ass Fucking Animals DDF Video | X Art Alexa Grace Lena Anderson | IPZ 794 | Young Legal Porn Paulina James Fucks Two Cocks | rain genesis |