Quick Browse
Movies
TV shows
Music
Games
Applications
Anime
Other
Facebook
Advertising

Friends
Torrent Download
Movie4u
1337x.to
Torrent Downloads




Happy New Year (2011) FRENCH TS XviD


    Seeders : 56      Leechers : 2
Hash :125EC58283A51B1EC55F617DBACC13171803E1F7
Added :1 Year+ by L0LPLZVerified torrent uploader in Movies
Size :701.55 MB
Stream :WATCH ONLINE @ Movie4u


Happy New Year (2011) FRENCH TS XviD
Free and Fast Download with Usenet 300GB+ free







Trackers List

Tracker NameLast CheckStatusSeedersLeechers




Torrent File Content (7 files)


Happy New Year (2011) FRENCH TS XviD
     Happy New Year (2011) FRENCH TS XviD.rar -
701.34 MB

     affiche.jpg -
216.57 KB

     Happy New Year (2011) FRENCH TS XviD.nfo -
4.31 KB

     LISEZ MOI - Important.txt -
887 bytes

     Torrent downloaded from Demonoid.me.txt -
46 bytes

     Torrent downloaded from Extratorrent.com.txt -
40 bytes

     Torrent downloaded from h33t.com.txt -
32 bytes



Description



Happy New Year (2011) FRENCH TS XviD
Format: Xvid

http://www.imdb.com/title/tt1598822/

Date de sortie: 21 décembre 2011 (1h 58min)
Genre: Comédie, Romance
Nationalité: Américain
Synopsis: "Happy New Year" célèbre l’amour, l’espoir, le pardon, les secondes chances et les nouveaux départs, à travers les histoires entremêlées de couples et de célibataires, racontées au milieu du rythme effréné et des promesses de la ville de New York pendant la nuit la plus éclatante de l’année.


Video
ID : 0
Format : MPEG-4 Visual
Format profile : Advanced [email protected]
Format settings, BVOP : 2
Format settings, QPel : No
Format settings, GMC : No warppoints
Format settings, Matrix : Default (H.263)
Codec ID : XVID
Codec ID/Hint : XviD
Duration : 1h 58mn
Bit rate : 1 349 Kbps
Width : 720 pixels
Height : 304 pixels
Display aspect ratio : 2.35:1
Frame rate : 25.000 fps
Color space : YUV
Chroma subsampling : 4:2:0
Bit depth : 8 bits
Scan type : Progressive
Compression mode : Lossy
Bits/(Pixel*Frame) : 0.247
Stream size : 1.08 GiB (91%)

Audio
ID : 1
Format : MPEG Audio
Format version : Version 1
Format profile : Layer 3
Mode : Joint stereo
Mode extension : MS Stereo
Codec ID : 55
Codec ID/Hint : MP3
Duration : 1h 58mn
Bit rate mode : Constant
Bit rate : 128 Kbps
Channel(s) : 2 channels
Sampling rate : 44.1 KHz
Compression mode : Lossy
Stream size : 105 MiB (9%)
Alignment : Aligned on interleaves
Interleave, duration : 40 ms (1.00 video frame)
Writing library : LAME3.98r
Encoding settings : -m j -V 4 -q 2 -lowpass 17 -b 128



Salutations à Tout Ceux qui font leur possible pour soutenir le P2P Et La Scène ;)

Related torrents

Torrent NameAddedSizeSeedLeechHealth
1 Year+ - in Movies1.52 GB00
1 Year+ - in Movies1.52 GB00
1 Year+ - in Music163.44 MB00
1 Year+ - in Music7.93 MB00
11 months ago - in Other730.37 MB00

Comments (0 Comments)




Please login or create a FREE account to post comments

Latest Searches

| beauty impossible | elvis nixon 2016 trailer | stranded s kristen | titans go baby hands | cashmere cat remix | short night of glass | crochet cables | Ice E03 | mite m | all in want for Christmas |