Quick Browse
Movies
TV shows
Music
Games
Applications
Anime
Other
Facebook
Advertising

Friends
Torrent Download
Movie4u
1337x.to
Torrent Downloads




Verified torrent Happy Tears [DVD5] [ENG] [AC3] [Hannspree]


    Seeders : 1      Leechers : 57
Hash :7C8538FC24E92CAEFD1BFC09B59707AB67884B9E
Added :1 Year+ by HannspreeVerified torrent uploader in Movies
Size :1.75 GB
Stream :WATCH ONLINE @ Movie4u


Happy Tears [DVD5] [ENG] [AC3] [Hannspree]
Free and Fast Download with Usenet 300GB+ free







Trackers List

Tracker NameLast CheckStatusSeedersLeechers




Torrent File Content (13 files)


Happy Tears
    Happy Tears [DVD]
          VIDEO_TS/VIDEO_TS.BUP -
12 KB

          VIDEO_TS/VIDEO_TS.IFO -
12 KB

          VIDEO_TS/VIDEO_TS.VOB -
58 KB

          VIDEO_TS/VTS_01_0.BUP -
68 KB

          VIDEO_TS/VTS_01_0.IFO -
68 KB

          VIDEO_TS/VTS_01_0.VOB -
58 KB

          VIDEO_TS/VTS_01_1.VOB -
1023.97 MB

          VIDEO_TS/VTS_01_2.VOB -
768.87 MB

    Happy Tears [Images]
          Happy Tears [Cover].jpg -
394.93 KB

          Happy Tears [Disc].jpg -
471.57 KB

          Happy Tears [Screens].jpg -
150.35 KB

     Happy Tears.NFO -
4.19 KB

     Torrent downloaded from H33T.org.txt -
43 bytes



Description



=====================================================================================
[ Another free, high quality, ready to burn DVD I will be adding new torrents on a daily basis - Remember to seed ]
=====================================================================================
MOVIE TITLE: Happy Tears
LANGUAGE: English
MOVIE SUBS: No
BURN TESTED: Yes
FORMAT: Pal
GENRE: Comedy | Drama
RUNTIME: 95 Minutes
YEAR: 2009
IMDB LINK: http://www.imdb.com/title/tt1219828/
=====================================================================================
MOVIE DESC:

Jayne and Laura are about to take on the first man they just might not be able to handle: their seventy-something-year-old father Joe. Dutiful daughters returning to the house they grew up in, Jayne and Laura are forced to take a closer look at their own not-so-perfect lives while dodging childhood memories. Laura suspects that Joe needs full-time care, but Jayne hopes that their father's condition isn't that serious. Joe is still singing and playing his old guitar, and the lively widower even has a new "ladyfriend," shameless and sassy Shelly. But as the visible moments of their father's impending senility increase, so do the dysfunctional family dynamics. Tensions flare as the close sisters must also juggle their own very different lives - Laura's busy schedule as an environmentalist and mother of two small children, and Jayne, desperate to finally have a baby with her workaholic art-dealing husband Jackson. Their adventures back home are not without magic, mischief and mayhem, and even a search for buried treasure in the backyard! Any tears that Jayne and Laura might shed will be happy ones.
=====================================================================================
MOVIE SPECS:

GENERAL:
Complete name : Happy Tears [DVD5]
Format : MPEG-PS
File size : 1.75 GB
Duration : 55mn 52s
Overall bit rate : 2 562 Kbps

VIDEO:
ID : 224 (0xE0)
Format : MPEG Video
Format version : Version 2
Format profile : [email protected]
Format settings, BVOP : Yes
Format settings, Matrix : Default
Duration : 55mn 52s
Bit rate mode : Variable
Bit rate : 2 319 Kbps
Nominal bit rate : 9 608 Kbps
Width : 720 pixels
Height : 576 pixels
Display aspect ratio : 16:9
Frame rate : 24.000 fps
Standard : PAL
Color space : YUV
Chroma subsampling : 4:2:0
Bit depth : 8 bits
Scan type : Progressive
Scan order : 2:2:2:2:2:2:2:2:2:2:2:3 Pulldown
Bits/(Pixel*Frame) : 0.233
Stream size : 927 MiB (91%)

AUDIO:
ID : 128 (0x80)
Format : AC-3
Format/Info : Audio Coding 3
Mode extension : CM (complete main)
Duration : 55mn 52s
Bit rate mode : Constant
Bit rate : 192 Kbps
Channel(s) : 2 channels
Channel positions : Front: L R
Sampling rate : 48.0 KHz
Stream size : 76.7 MiB (7%)
=====================================================================================
TRACKERS:
http://fr33dom.h33t.com:3310/announce
http://exodus.1337x.org/announce
http://tracker.ilibr.org/announce
http://tpb.tracker.prq.to/announce
http://red.tracker.prq.to/announce
http://tracker.openbittorrent.com/announce
http://gemini.tracker.prq.to/announce
http://11.rarbg.com/announce
=====================================================================================
[FOOT NOTE]
If you are happy with this download, it would be nice to hear your views or comments that you might have. Enjoy
=====================================================================================
Screen Shot Of Happy Tears
=====================================================================================
http://leetpic.com/images/happytears.jpg

=====================================================================================
http://torrent-stats.info/fc09/e33400ff.png

=====================================================================================

Related torrents

Torrent NameAddedSizeSeedLeechHealth
Verified torrent
1 Year+ - in Movies1.68 GB42
Verified torrent
1 Year+ - in Movies1.63 GB03
Verified torrent
1 Year+ - in Movies2.14 GB28
Verified torrent
1 Year+ - in Movies869.42 MB55
Verified torrent
1 Year+ - in Movies2 GB02

Comments (0 Comments)




Please login or create a FREE account to post comments

Latest Searches

| the mentalist john il rosso ita | Storks 2016 BluRay 1080p | eng sister hentai | longway ft rich homie quan | amber rayne amateur attemps 10 amber means filth | Big rene | DAZ3D Poser ranger | Mushukunin Mikogami no Jokichi Kiba wa hikisaita | she mustard | notorious duets the final chapter |