Quick Browse
Movies
TV shows
Music
Games
Applications
Anime
Other
Facebook
Advertising

Friends
Torrent Download
Movie4u
1337x.to
Torrent Downloads




Verified torrent Harry Potter and the Deathly Hallows Part 2 2011 DVDSCR XVID AC3 HQ Hive-CM8


    Seeders : 1      Leechers : 1

Trackers List

Tracker NameLast CheckStatusSeedersLeechers




Torrent File Content (9 files)


Harry.Potter.and.the.Deathly.Hallows.Part.2.2011.DVDScr.XVID.AC3.HQ.Hive-CM8
     HDSceneRG.txt -
115 bytes

     Harry.Potter.and.the.Deathly.Hallows.Part.2.2011.DVDSCR.XVID.AC3.HQ.Hive-CM8.nfo -
5.31 KB

     Harry.Potter.and.the.Deathly.Hallows.Part.2.2011.DVDScr.XVID.AC3.HQ.Hive-CM8.avi -
1.87 GB

     Torrent downloaded from Demonoid.me.txt -
46 bytes

     Torrent downloaded from Suprnova.me.txt -
42 bytes

     att-networks.com.txt -
39 bytes

     sample.avi -
8.18 MB

     sample2.avi -
7.55 MB

     sceneunderground.org.txt -
77 bytes



Description



http://img41.imageshack.us/img41/6370/harryyi.jpg

[code]
Harry.Potter.and.the.Deathly.Hallows.Part.2.2011.DVDSCR.XVID.AC3.HQ.Hive-CM8


Thx Hive

CM8 Doing It Right The First Time


Source: LTW

thx

Encode:

same as on hangover, the LTW file looks better than the upscale pre dvd-r, but was lots more work to do.
Mostly dark scenes as on part 1, and colourless.
Firstly i removed some noise and cut the movie in parts.
daylight, darkness and dawn scenes needed different settings. colours needed fixing too, brightened all dark scenes up a lot to let you see more of the movie, daylight scenes only slightly changed when needed. sharpness also very slightly.
all in all very watchable now


here is a LTW comparison:

http://screenshotcomparison.com/comparison/88712

all in all very watchable now
enjoy

Video: 672x288 @bitrate 1800 2pass
Audio: English AC3 2.0 Stereo
Sample: yes 2 included

Oh and to clear up this misconception about the LTW source and the upscaled pre dvdr

http://screenshotcomparison.com/comparison/88711

smaller resolution yes
cropped and losing picture no


http://www.imdb.com/title/tt1201607/


General
Complete name : Harry.Potter.and.the.Deathly.Hallows.Part.2.2011.DVDScr.XVID.AC3.HQ.Hive-CM8.avi
Format : AVI
Format/Info : Audio Video Interleave
File size : 1.87 GiB
Duration : 2h 5mn
Overall bit rate : 2 141 Kbps
Writing application : Nandub v1.0rc2
Writing library : Nandub build 1853/release

Video
ID : 0
Format : MPEG-4 Visual
Format profile : Advanced [email protected]
Format settings, BVOP : 2
Format settings, QPel : Yes
Format settings, GMC : No warppoints
Format settings, Matrix : Default (H.263)
Muxing mode : Packed bitstream
Codec ID : XVID
Codec ID/Hint : XviD
Duration : 2h 5mn
Bit rate : 1 937 Kbps
Width : 672 pixels
Height : 288 pixels
Display aspect ratio : 2.35:1
Frame rate : 29.970 fps
Color space : YUV
Chroma subsampling : 4:2:0
Bit depth : 8 bits
Scan type : Progressive
Compression mode : Lossy
Bits/(Pixel*Frame) : 0.334
Stream size : 1.69 GiB (90%)
Writing library : XviD 1.2.1 (UTC 2008-12-04)

Audio
ID : 1
Format : AC-3
Format/Info : Audio Coding 3
Mode extension : CM (complete main)
Codec ID : 2000
Duration : 2h 5mn
Bit rate mode : Constant
Bit rate : 192 Kbps
Channel(s) : 2 channels
Channel positions : Front: L R
Sampling rate : 48.0 KHz
Bit depth : 16 bits
Compression mode : Lossy
Delay relative to video : 100ms
Stream size : 172 MiB (9%)
Alignment : Split accross interleaves
Interleave, duration : 33 ms (1.00 video frame)
Interleave, preload duration : 500 ms


Plot:

The final chapter begins as Harry, Ron, and Hermione continue their quest of finding and destroying
the Dark Lord's three remaining Horcruxes, the magical items responsible for his immortality.
But as the mystical Deathly Hallows are uncovered, and Voldemort finds out about their mission,
the biggest battle begins and life as they know it will never be the same again.

Cast:

Daniel Radcliffe ... Harry Potter
Rupert Grint ... Ron Weasley
Emma Watson ... Hermione Granger
Ralph Fiennes ... Lord Voldemort
Alan Rickman ... Professor Severus Snape
[/code]
Screens:
http://img685.imageshack.us/img685/6865/89921140.png

http://img510.imageshack.us/img510/8690/41445581.png

http://img694.imageshack.us/img694/403/11423991.png

http://img338.imageshack.us/img338/1481/46176435.png

http://img718.imageshack.us/img718/5008/41825100.png

Related torrents

Torrent NameAddedSizeSeedLeechHealth
1 Year+ - in Movies1.88 GB121
1 Year+ - in Movies1.88 GB13
1 Year+ - in Movies1.88 GB01
1 Year+ - in Movies1.88 GB116
1 Year+ - in Movies2.07 GB2855

Comments (0 Comments)




Please login or create a FREE account to post comments

Latest Searches

| the girl and the box | golden 2007 dual audio | wild life spanish | electronics magazine 2016 | NCIS New Orleans S03E08 web | Snoop Dog c | Big Tits Like Big Dicks 2 | Blood Father 2016 1080p BluRay 6CH 1 6GB ShAaNiG | BERLIN STRINGS ORCHESTRAL TOOLS | Underworld blu ray hindi |