Quick Browse
Movies
TV shows
Music
Games
Applications
Anime
Other
Facebook
Advertising

Friends
Torrent Download
Movie4u
1337x.to
Torrent Downloads




Verified torrent Harry Potter and the Deathly Hallows Part 2 2011 DVDSCR XviD AC3 - VISUALiSE


    Seeders : 1      Leechers : 2

Trackers List

Tracker NameLast CheckStatusSeedersLeechers




Torrent File Content (7 files)


Harry Potter and the Deathly Hallows Part 2 2011 DVDSCR XviD AC3 - VISUALiSE
     HDSceneRG.txt -
115 bytes

     Harry Potter and the Deathly Hallows Part 2 2011 DVDSCR XviD AC3 - VISUALiSE.avi -
2.04 GB

     Torrent downloaded from Demonoid.me.txt -
46 bytes

     Torrent downloaded from Suprnova.me.txt -
42 bytes

     att-networks.com.txt -
39 bytes

     sample.avi -
23.9 MB

     sceneunderground.org.txt -
77 bytes



Description



http://img856.imageshack.us/img856/3694/harryb.png

[code]
Release Notes:
Well here we are with our release of Harry Potter and the Deathly Hallows Part 2 2011 DVDSCR XviD AC3 - VISUALiSE
Big Thanks For The Source file from ????????? So we could do a proper release on this and not a reencode
Decided to tag it as a screener as tbh as its more a scr than a true dvdrip but hey

Info:
Video
ID : 0
Format : MPEG-4 Visual
Format profile : Advanced [email protected]
Format settings, BVOP : 2
Format settings, QPel : No
Format settings, GMC : No warppoints
Format settings, Matrix : Default (H.263)
Muxing mode : Packed bitstream
Codec ID : XVID
Codec ID/Hint : XviD
Duration : 2h 5mn
Bit rate : 2 104 Kbps
Width : 720 pixels
Height : 304 pixels
Display aspect ratio : 2.35:1
Frame rate : 23.976 fps
Color space : YUV
Chroma subsampling : 4:2:0
Bit depth : 8 bits
Scan type : Progressive
Compression mode : Lossy
Bits/(Pixel*Frame) : 0.401
Stream size : 1.84 GiB (90%)
Writing library : XviD 64

Audio
ID : 1
Format : AC-3
Format/Info : Audio Coding 3
Mode extension : CM (complete main)
Codec ID : 2000
Duration : 2h 5mn
Bit rate mode : Constant
Bit rate : 224 Kbps
Channel(s) : 2 channels
Channel positions : Front: L R
Sampling rate : 48.0 KHz
Bit depth : 16 bits
Compression mode : Lossy
Stream size : 200 MiB (10%)
Alignment : Aligned on interleaves
Interleave, duration : 42 ms (1.00 video frame)
[/code]
Screens:
http://img5.imageshack.us/img5/2135/55007660.png

http://img511.imageshack.us/img511/9012/45150883.png

http://img543.imageshack.us/img543/1092/78012674.png

http://img717.imageshack.us/img717/8278/95202416.png

Related torrents

Torrent NameAddedSizeSeedLeechHealth
1 Year+ - in Movies1.88 GB121
Verified torrent
1 Year+ - in Movies1.88 GB11
1 Year+ - in Movies1.88 GB13
1 Year+ - in Movies1.88 GB01
1 Year+ - in Movies1.88 GB116

Comments (0 Comments)




Please login or create a FREE account to post comments

Latest Searches

| fgt altamira | dec 09 2016 | the day after tomorrow hindi dual | Ray Donovan Season 4 Episode 10 | charts 60 | Egy rem rendes | Episode 11 22 | the devil a lie | sexasian18 15 10 25 softcore asian slut pure lewdness | 3 Percent S01E02 WEB X264 DEFLATEettv |