Quick Browse
Movies
TV shows
Music
Games
Applications
Anime
Other
Facebook
Advertising

Friends
Torrent Download
Movie4u
1337x.to
Torrent Downloads




Verified torrent Harry Potter e il Calice di Fuoco Ita_Eng AC3 DVDRip XviD Sub_Ita Eng-IDN_CREW


    Seeders : 5      Leechers : 0

Trackers List

Tracker NameLast CheckStatusSeedersLeechers
udp://9.rarbg.com:2710/announce1 Year+success50
http://bigfoot1942.sektori.org:6969/announce1 Year+success00
http://tracker.nwps.ws:6969/announce1 Year+success00
http://torrent.gresille.org/announce1 Year+success00
http://tracker.trackerfix.com/announce1 Year+success00
udp://open.demonii.com:1337/announce1 Year+success00




Torrent File Content (4 files)


HP.C4l1c3.d1.Fu0c0.Ita_Eng.AC3.DVDRip.XviD.Sub_Ita.Eng-IDN_CREW
     HP.C4l1c3.d1.Fu0c0.Ita_Eng.AC3.DVDRip.XviD.Sub_Ita.Eng(eng)-IDN_CREW.srt -
110.78 KB

     HP.C4l1c3.d1.Fu0c0.Ita_Eng.AC3.DVDRip.XviD.Sub_Ita.Eng-IDN_CREW.avi -
1.53 GB

     HP.C4l1c3.d1.Fu0c0.Ita_Eng.AC3.DVDRip.XviD.Sub_Ita.Eng-IDN_CREW.srt -
111.86 KB

     IDN_CREW Leggimi.txt -
294 bytes



Description



http://img708.imageshack.us/img708/4083/harrypottereilcalicedif.png

[color=blue]Harry Potter e il calice di fuoco[/color]
[color=blue]Harry Potter and the Goblet of Fire[/color]
DVDRip Dual Audio Ita Eng AC3


http://img514.imageshack.us/img514/1502/inforelease.png



[color=blue]Titolo Originario:[/color] Harry Potter and the Goblet of Fire
[color=blue]Titolo Italiano:[/color] Harry Potter e il Calice di Fuoco
[color=blue]Anno: [/color]2005
[color=blue]Nazionalità: [/color] Regno Unito - USA
[color=blue]Genere:[/color] Avventura - Fantastico
[color=blue]Lingua:[/color] Inglese - Italiano
[color=blue]Durata:[/color] 151 min.
[color=blue]Cast:[/color] Daniel Radcliffe, Emma Watson, Rupert Grint, Bonnie Wright, Robert Pattinson
[color=blue]Regia:[/color] Mike Newell
[color=blue]Produzione:[/color]Warner Bros
[color=blue]Distribuzione (Italia):[/color]Warner Bros
[color=blue]Fonti:[/color][color=red] http://it.wikipedia.org/wiki/Harry_Potter_e_il_calice_di_fuoco_%28film%29
http://www.mymovies.it/dizionario/recensione.asp?id=35614 [/color]


http://img153.imageshack.us/img153/7608/tramao.png


[color=black] Il quarto anno di Harry Potter ad Hogwarts è contrassegnato dal torneo di Triwizard, nel quale i rappresentanti di 3 scuole di magia devono sfidarsi in alcune gare. Il Calice di fuoco ogni volta pronuncia il nome di colui che sarà il prescelto a rappresentare il suo Collegio. Quest'anno, però, per la prima volta il Calice annuncia che le insegne di Hogwarts saranno difese da due partecipanti, uno dei quali è proprio Harry[/color]


http://img190.imageshack.us/img190/7663/recension.png



[color=blue] Hogwarts anno quarto. Harry Potter e i suoi amici Ron ed Hermione stanno crescendo e con loro crescono le consapevolezze e i dubbi.
È questo il perno attorno a cui ruota il film di Mike Newell in perfetto equilibrio tra dramma e commedia. Perché il dolore pesa terribilmente sulle spalle di questo Eletto che vorrebbe essere solo un mago "normale" e tutte le assenze del passato (i genitori morti) e le incombenze del futuro si fanno pressanti. La tensione non è quindi tanto affidata ai draghi o alle prove da superare quanto a una sofferenza interiore che non ha bisogno di attendere l'evidenza dell'incontro con Voldemort per divenire percepibile. Ma Newell (sempre più apprezzabile l'idea di cambiare regista per ogni film) è però abilissimo nel farcela "sentire" come tema portante distraendo però la nostra attenzione grazie alle pagine della festa da ballo che la Rowling gli offre e che lui sa giostrare con la sapienza consumata di un realizzatore di commedie brillanti.
I piccoli slittamenti del cuore, le rivalità e i tremori dell'inizio dell'adolescenza diventano materia per un'ampia parentesi di alleggerimento. Che non basta però a distrarci dall'esigenza (divenuta per Harry ormai imprescindibile) di distinguere la realtà dall'apparenza, il bene da ciò che bene non è. Se gli amici restano tali nonostante le incomprensioni, il mondo intorno a lui si sta facendo sempre più "adulto" e, quindi, sempre più ambiguo e temibile.
[/color]


http://img529.imageshack.us/img529/7286/datifile.png



http://img33.imageshack.us/img33/8439/harrypottereilcalicedif.jpg


http://torrent-stats.info/2cdf/3ce20b66.png


[color=red] General
Complete name : Harry.Potter.e.il.Calice.di.Fuoco.Ita_Eng.AC3.DVDRip.XviD.Sub_Ita.Eng-IDN_CREW.avi
Format : AVI
Format/Info : Audio Video Interleave
File size : 1.53 GiB
Duration : 2h 30mn
Overall bit rate : 1 451 Kbps

Video
Format : MPEG-4 Visual
Format profile : Streaming [email protected]
Format settings, BVOP : Yes
Format settings, QPel : No
Format settings, GMC : No warppoints
Format settings, Matrix : Custom
Codec ID : XVID
Codec ID/Hint : XviD
Duration : 2h 30mn
Bit rate : 925 Kbps
Width : 624 pixels
Height : 256 pixels
Display aspect ratio : 2.438
Frame rate : 25.000 fps
Resolution : 24 bits
Colorimetry : 4:2:0
Scan type : Progressive
Bits/(Pixel*Frame) : 0.232
Stream size : 998 MiB (64%)
Writing library : XviD 62

Audio #1
Format : AC-3
Format/Info : Audio Coding 3
Codec ID : 2000
Duration : 2h 30mn
Bit rate mode : Constant
Bit rate : 128 Kbps
Channel(s) : 6 channels
Channel positions : Front: L C R, Surround: L R, LFE
Sampling rate : 48.0 KHz
Stream size : 138 MiB (9%)
Alignment : Aligned on interleaves
Interleave, duration : 40 ms (1.00 video frame)

Audio #2
Format : AC-3
Format/Info : Audio Coding 3
Codec ID : 2000
Duration : 2h 30mn
Bit rate mode : Constant
Bit rate : 384 Kbps
Channel(s) : 6 channels
Channel positions : Front: L C R, Surround: L R, LFE
Sampling rate : 48.0 KHz
Resolution : 16 bits
Stream size : 414 MiB (26%)
Alignment : Aligned on interleaves
Interleave, duration : 40 ms (1.00 video frame)
[/color]


http://img20.imageshack.us/img20/4974/screenshotsph.png


http://img706.imageshack.us/img706/8739/vlcsnap2011052014h29m11.png

http://img268.imageshack.us/img268/3284/vlcsnap2011052014h29m17.png

http://img31.imageshack.us/img31/2709/vlcsnap2011052014h29m23.png

http://img815.imageshack.us/img815/5512/vlcsnap2011052014h29m31.png

http://img710.imageshack.us/img710/5851/vlcsnap2011052014h29m42.png


http://img687.imageshack.us/img687/5791/nuuuuuuuuuuu.png


Related torrents

Torrent NameAddedSizeSeedLeechHealth
1 Year+ - in Movies7.94 GB00
1 Year+ - in Movies2.05 GB00
1 Year+ - in Movies4.37 GB63
10 months ago - in Movies1.24 GB00
Verified torrent
1 Year+ - in Movies1.09 GB10
Verified torrent
1 Year+ - in Movies1.75 GB91

Comments (0 Comments)




Please login or create a FREE account to post comments

Latest Searches

| dragon ball z s03e32 | uv mapping 3ds max games | The Light Between Oceans 2016 720p WEB DL 1 2GB ShAaNiG | lascars 2012 s01e12 | New Girl S02E08 HDTV x264 LOL mp4 | internet manager 6 25 build 21 | VILLAGE IN COUNTY TYRONE | rescue special ops s03e09 10 mux xvid ita mp3 tntvillage | TonightsGirlfriend Aaliyah Love Brad Knight 24 11 2016 | Notes on a Scandal 2006 |