Quick Browse
Movies
TV shows
Music
Games
Applications
Anime
Other
Facebook
Advertising

Friends
Torrent Download
Movie4u
1337x.to
Torrent Downloads




Hawa Hawai Shaitan (2011) Full Song HD @ 1080p - {RAVI}


    Seeders : 18      Leechers : 113

Trackers List

Tracker NameLast CheckStatusSeedersLeechers




Torrent File Content (16 files)


Hawa Hawai Shaitan (2011) Full Song HD @ 1080p - {RAVI}
     Hawa Hawai Shaitan (2011) Full Song HD @ 1080p - {RAVI}.mp4 -
107.3 MB

    Screen Shots
          3.jpg -
504.83 KB

          2.jpg -
427.24 KB

          1.jpg -
391.69 KB

          4.jpg -
312.77 KB

    Cover
          Shaitan Poster (2).jpg -
283.95 KB

    Screen Shots
          7.jpg -
271.54 KB

          5.jpg -
265.43 KB

          6.jpg -
191.65 KB

    Cover
          Shaitan Poster (1).jpg -
181.81 KB

     Media Info.txt -
2.57 KB

     Torrent Downloaded From ExtraTorrent.com.txt -
353 bytes

     Please Seed And Comment.txt -
153 bytes

     Torrent downloaded from Silvertorrents.me.txt -
53 bytes

     Torrent Downloaded from Limetorrents.com.txt -
48 bytes

     Torrent downloaded from kickasstorrent.com.txt -
17 bytes



Description



http://i1198.photobucket.com/albums/aa452/stifler151991/ShaitanPoster1.jpg





Hawa Hawai Shaitan (2011) Full Song HD @ 1080p - {RAVI}




General
Complete name : Hawa Hawai.mp4
Format : MPEG-4
Format profile : Base Media / Version 2
Codec ID : mp42
File size : 107 MiB
Duration : 4mn 15s
Overall bit rate mode : Variable
Overall bit rate : 3 519 Kbps

Video
ID : 1
Format : AVC
Format/Info : Advanced Video Codec
Format profile : [email protected]
Format settings, CABAC : Yes
Format settings, ReFrames : 1 frame
Codec ID : avc1
Codec ID/Info : Advanced Video Coding
Duration : 4mn 15s
Bit rate : 3 364 Kbps
Maximum bit rate : 9 232 Kbps
Width : 1 920 pixels
Height : 1 080 pixels
Display aspect ratio : 16:9
Frame rate mode : Constant
Frame rate : 25.000 fps
Color space : YUV
Chroma subsampling : 4:2:0
Bit depth : 8 bits
Scan type : Progressive
Bits/(Pixel*Frame) : 0.065
Stream size : 103 MiB (96%)

Audio
ID : 2
Format : AAC
Format/Info : Advanced Audio Codec
Format profile : LC
Codec ID : 40
Duration : 4mn 15s
Bit rate mode : Variable
Bit rate : 152 Kbps
Maximum bit rate : 177 Kbps
Channel(s) : 2 channels
Channel positions : Front: L R
Sampling rate : 44.1 KHz
Compression mode : Lossy
Stream size : 4.63 MiB (4%)




http://i1198.photobucket.com/albums/aa452/stifler151991/1-4.jpg


http://i1198.photobucket.com/albums/aa452/stifler151991/2-4.jpg


http://i1198.photobucket.com/albums/aa452/stifler151991/3-4.jpg


http://i1198.photobucket.com/albums/aa452/stifler151991/4-4.jpg


http://i1198.photobucket.com/albums/aa452/stifler151991/5-4.jpg


http://i1198.photobucket.com/albums/aa452/stifler151991/6-3.jpg


http://i1198.photobucket.com/albums/aa452/stifler151991/7-1.jpg




http://i1198.photobucket.com/albums/aa452/stifler151991/1308777893184.gif


http://i1198.photobucket.com/albums/aa452/stifler151991/commentsrappreciated.gif


http://i1198.photobucket.com/albums/aa452/stifler151991/ifacuh.gif


http://i1198.photobucket.com/albums/aa452/stifler151991/jfkpd3jpg.gif





Please Seed And Dont Forget To Say Thanks After Download



http://i1198.photobucket.com/albums/aa452/stifler151991/43268970463943739196.gif

Related torrents

Torrent NameAddedSizeSeedLeechHealth
1 Year+ - in Other1.33 GB00
1 Year+ - in Other39.03 MB00
1 Year+ - in Other39.03 MB10
1 Year+ - in Other55.55 MB91
1 Year+ - in Music134.12 MB00

Comments (0 Comments)




Please login or create a FREE account to post comments

Latest Searches

| bad santa 2016 | servitude 2012 | Sherlock Holmes A Game Of Shadows 2011 720p BRRip | Belyj tigr pl | USA Top 100 7 | gta game pc compressed | seven surrender | parody show | Desire pussy | im the best in the best |