Quick Browse
Movies
TV shows
Music
Games
Applications
Anime
Other
Facebook
Advertising

Friends
Torrent Download
Movie4u
1337x.to
Torrent Downloads




Hit And Run 2009 UNRATED DVDRip XviD~Striker~TDA


    Seeders : 2      Leechers : 2
Hash :294FEBBD55E9AB67333C8F8C6EAD79E3233757B8
Added :1 Year+ by striker123Verified torrent uploader in Movies
Size :693.52 MB
Stream :WATCH ONLINE @ Movie4u


Hit And Run 2009 UNRATED DVDRip XviD~Striker~TDA
Free and Fast Download with Usenet 300GB+ free







Trackers List

Tracker NameLast CheckStatusSeedersLeechers




Torrent File Content (4 files)


Hit And Run 2009 UNRATED DVDRip XviD~Striker~TDA
     Hit And Run 2009 UNRATED DVDRip XviD~Striker~TDA.avi -
692.86 MB

     TeamTDA.jpg -
681.47 KB

     More Movies.url -
112 bytes

     Tracked By DesiAdda.com.txt -
23 bytes



Description



http://i52.tinypic.com/ayull.jpg


http://www.image.videorockers.in/hosted/90fd1472acca77fa1ca3fd9bf9c23760.jpg


http://i51.tinypic.com/n13txv.png


[CODE]
General

Format : AVI
Format/Info : Audio Video Interleave
Format profile : OpenDML
File size : 693 MiB
Duration : 1h 23mn
Overall bit rate : 1 154 Kbps
Writing application : AVI-Mux GUI 1.17.7, Aug 8 2006 20:59:17

Video
ID : 0
Format : MPEG-4 Visual
Format profile : [email protected]
Format settings, BVOP : Yes
Format settings, QPel : No
Format settings, GMC : No warppoints
Format settings, Matrix : Default (MPEG)
Codec ID : XVID
Codec ID/Hint : XviD
Duration : 1h 23mn
Bit rate : 701 Kbps
Width : 640 pixels
Height : 272 pixels
Display aspect ratio : 2.35:1
Frame rate : 23.976 fps
Resolution : 24 bits
Colorimetry : 4:2:0
Scan type : Progressive
Bits/(Pixel*Frame) : 0.168
Stream size : 421 MiB (61%)
Writing library : XviD 1.1.2 (UTC 2006-11-01)

Audio
ID : 1
Format : AC-3
Format/Info : Audio Coding 3
Codec ID : 2000
Duration : 1h 23mn
Bit rate mode : Constant
Bit rate : 448 Kbps
Channel(s) : 6 channels
Channel positions : Front: L C R, Surround: L R, LFE
Sampling rate : 48.0 KHz
Stream size : 269 MiB (39%)
Alignment : Aligned on interleaves
Interleave, duration : 64 ms (1.53 video frames)
Interleave, preload duration : 192 ms



[/CODE]

http://i51.tinypic.com/2cgga6v.png


http://i54.tinypic.com/w896s4.jpg


http://i55.tinypic.com/2dah9bk.png

Related torrents

Torrent NameAddedSizeSeedLeechHealth
1 Year+ - in Movies712.23 MB00
1 Year+ - in Movies803.07 MB78
1 Year+ - in Movies708.76 MB13178
1 Year+ - in Movies701.41 MB00
1 Year+ - in Movies522.39 MB32

Comments (0 Comments)




Please login or create a FREE account to post comments

Latest Searches

| david lindsey kleur van de nacht | nfl w14 | Blue Rodeo OUR | a perfect day mkv | Ms Madison 2016 DVDRip | fetish trample | Reamed Creamed | Tushy 16 05 01 Dana Dearmond SD MP4 RARBG | steven van | mr and mrs player 2013 1080p bluray x264 rovers |