Quick Browse
Movies
TV shows
Music
Games
Applications
Anime
Other
Facebook
Advertising

Friends
Torrent Download
Movie4u
1337x.to
Torrent Downloads




Verified torrent Holy Water [DVD] [ENG] [AC3] [Hannspree]


    Seeders : 1      Leechers : 2
Hash :0CA26E68620F0233F0868C15FC8A5D8250A17BA5
Added :1 Year+ by HannspreeVerified torrent uploader in Movies
Size :2.01 GB
Stream :WATCH ONLINE @ Movie4u


Holy Water [DVD] [ENG] [AC3] [Hannspree]
Free and Fast Download with Usenet 300GB+ free







Trackers List

Tracker NameLast CheckStatusSeedersLeechers




Torrent File Content (16 files)


Holy Water
    Holy Water [DVD]
          VIDEO_TS/VIDEO_TS.BUP -
12 KB

          VIDEO_TS/VIDEO_TS.IFO -
12 KB

          VIDEO_TS/VIDEO_TS.VOB -
58 KB

          VIDEO_TS/VTS_01_0.BUP -
64 KB

          VIDEO_TS/VTS_01_0.IFO -
64 KB

          VIDEO_TS/VTS_01_0.VOB -
58 KB

          VIDEO_TS/VTS_01_1.VOB -
1023.97 MB

          VIDEO_TS/VTS_01_2.VOB -
1023.97 MB

          VIDEO_TS/VTS_01_3.VOB -
6.54 MB

    Holy Water [Screens]
          Holy Water Screens.jpg -
166.24 KB

     Holy Water.NFO -
3.66 KB

     Torrent downloaded from Demonoid.com.txt -
47 bytes

     Torrent downloaded from Genesis-sp.org.txt -
49 bytes

     Torrent downloaded from H33t.org.txt -
43 bytes

     Torrent downloaded from Limetorrents.com.txt -
51 bytes

     Torrent downloaded from Torrentsnet.com.txt -
48 bytes



Description



=====================================================================================
[ Another free, high quality, ready to burn DVD I will be adding new torrents on a daily basis - Remember to seed ]
=====================================================================================
MOVIE TITLE: Holy Water
LANGUAGE: English
MOVIE SUBS: No
BURN TESTED: Yes
FORMAT: Pal
GENRE: Comedy
RUNTIME: 92 Minutes
YEAR: 2009
IMDB LINK: http://www.imdb.com/title/tt1292652/
=====================================================================================
MOVIE DESC:

The village of Kilcoulins Leap was once a thriving spa town, and was home to a famous Holy Well, but now offers little by way of employment for its people, and its decline seems inexorable. When local Postie, Podger Byrnes, comes up with a plan to hijack a consignment of Viagra, and sell it on the open market in Amsterdam, his friends are desperate enough to try it. Not counting on the muscular response of Viagra's makers, the boys panic and hide the lorry load of Viagra down the town's Holy Well.
=====================================================================================
MOVIE SPECS:

GENERAL:
Complete name : Holy Water
Format : MPEG-PS
File size : 2.00 GB
Duration : 92 Minutes
Overall bit rate : 3 696 Kbps

VIDEO:
ID : 224 (0xE0)
Format : MPEG Video
Format version : Version 2
Format profile : [email protected]
Format settings, BVOP : Yes
Format settings, Matrix : Default
Duration : 92 Minutes
Bit rate mode : Variable
Bit rate : 3 430 Kbps
Nominal bit rate : 9 608 Kbps
Width : 720 pixels
Height : 576 pixels
Display aspect ratio : 16:9
Frame rate : 25.000 fps
Standard : PAL
Color space : YUV
Chroma subsampling : 4:2:0
Bit depth : 8 bits
Scan type : Progressive
Bits/(Pixel*Frame) : 0.331
Stream size : 950 MiB (93%)

AUDIO:
ID : 128 (0x80)
Format : AC-3
Format/Info : Audio Coding 3
Mode extension : CM (complete main)
Duration : 92 Minutes
Bit rate mode : Constant
Bit rate : 192 Kbps
Channel(s) : 2 channels
Channel positions : Front: L R
Sampling rate : 48.0 KHz
Stream size : 53.2 MiB (5%)
=====================================================================================
TRACKERS:
http://inferno.demonoid.com:3400/announce
http://pow7.com/announce
http://publicbt.ath.cx/announce
http://tracker.torrentbox.com:2710/announce
http://atrack.pow7.com/announce
http://denis.stalker.h3q.com:6969/announce
http://nemesis.1337x.org/announce
http://exodus.1337x.org/announce
http://tracker.publicbt.com/announce
http://10.rarbg.com/announce
http://tracker.ilibr.org:6969/announce
http://rt.beeretracker.net/announce.php
=====================================================================================
FOOT NOTE:
If you are happy with this download, it would be nice to hear your views or comments that you might have. Enjoy
=====================================================================================

Related torrents

Torrent NameAddedSizeSeedLeechHealth
Verified torrent
1 Year+ - in Movies1.36 GB129
Verified torrent
1 Year+ - in Movies1.34 GB56
Verified torrent
1 Year+ - in Movies1.7 GB186
Verified torrent
1 Year+ - in Movies1.53 GB62
Verified torrent
1 Year+ - in Movies1.43 GB81

Comments (0 Comments)




Please login or create a FREE account to post comments

Latest Searches

| crown m the empire | r playlist | Julia Ann Eliza Jane | Horizon Star on Earth | guns nroses paradise city | 2014 forest dr | cricket christmas | jap weather | hillbilly elegy epub | Reality Teil 19 Reife Frauen Ficken Sich Jung |