Quick Browse
Movies
TV shows
Music
Games
Applications
Anime
Other
Facebook
Advertising

Friends
Torrent Download
Movie4u
1337x.to
Torrent Downloads




Verified torrent Holy Water


    Seeders : 1      Leechers : 10
Hash :A4A6BAF57908ABE92FEA1DC8B40FEF5AEB86A65F
Added :1 Year+ by HannspreeVerified torrent uploader in Movies
Size :2.01 GB
Stream :WATCH ONLINE @ Movie4u


Holy Water
Free and Fast Download with Usenet 300GB+ free







Trackers List

Tracker NameLast CheckStatusSeedersLeechers




Torrent File Content (9 files)


Holy Water
    VIDEO_TS
          VIDEO_TS.BUP -
12 KB

          VIDEO_TS.IFO -
12 KB

          VIDEO_TS.VOB -
58 KB

          VTS_01_0.BUP -
64 KB

          VTS_01_0.IFO -
64 KB

          VTS_01_0.VOB -
58 KB

          VTS_01_1.VOB -
1023.97 MB

          VTS_01_2.VOB -
1023.97 MB

          VTS_01_3.VOB -
6.54 MB



Description



===============================================================================================
[ This torrent was uploaded by Hannspree on the 19th, June 2010 - I will be adding new torrents on a daily basis - Remember to seed ]
===============================================================================================
MOVIE TITLE: Holy Water
LANGUAGE: English
MOVIE SUBS: No - (subtitles if/when required)
===============================================================================================
MOVIE DESC:

The village of Kilcoulins Leap was once a thriving spa town, and was home to a famous Holy Well, but now offers little
by way of employment for its people, and its decline seems inexorable. When local Postie, Podger Byrnes, comes up
with a plan to hijack a consignment of Viagra, and sell it on the open market in Amsterdam, his friends are desperate
enough to try it. Not counting on the muscular response of Viagra's makers, the boys panic and hide the lorry load
of Viagra down the town's Holy Well.
===============================================================================================
MOVIE SPECS:

GENERAL:
Complete name : Holy Water
Format : MPEG-PS
File size : 2.00 GB
Duration : 90 Minutes
Overall bit rate : 3 696 Kbps

VIDEO:
ID : 224 (0xE0)
Format : MPEG Video
Format version : Version 2
Format profile : [email protected]
Format settings, BVOP : Yes
Format settings, Matrix : Default
Duration : 90 Minutes
Bit rate mode : Variable
Bit rate : 3 430 Kbps
Nominal bit rate : 9 608 Kbps
Width : 720 pixels
Height : 576 pixels
Display aspect ratio : 16:9
Frame rate : 25.000 fps
Standard : PAL
Color space : YUV
Chroma subsampling : 4:2:0
Bit depth : 8 bits
Scan type : Progressive
Bits/(Pixel*Frame) : 0.331
Stream size : 950 MiB (93%)

AUDIO:
ID : 128 (0x80)
Format : AC-3
Format/Info : Audio Coding 3
Mode extension : CM (complete main)
Duration : 90 Minutes
Bit rate mode : Constant
Bit rate : 192 Kbps
Channel(s) : 2 channels
Channel positions : Front: L R
Sampling rate : 48.0 KHz
Stream size : 53.2 MiB (5%)
===============================================================================================
STREAM:

Video: MPEG2 Video 720x576 (16:9) [Video]
Audio: Dolby AC3 48000Hz stereo [AC3]
===============================================================================================
TOTAL FILE SIZE:

2.00 GB (2,154,553,344 bytes)
===============================================================================================
TORRENT CONTENTS:

9 Files in 2 Folders (VIDEO_TS & AUDIO_TS)
===============================================================================================
IMDB LINK:

http://www.imdb.com/title/tt1292652/
===============================================================================================
[ Another Free, high quality and ready too burn DVD movie from Hannspree. More will follow very soon. Please do be patient until then ]
===============================================================================================

Related torrents

Torrent NameAddedSizeSeedLeechHealth
2 months ago - in Other27.73 MB00
4 months ago - in Other732.63 MB00
1 Year+ - in Other1.13 GB00
1 Year+ - in Other1.13 GB00
1 Year+ - in Music257.73 MB00
1 Year+ - in Music256.23 MB00

Comments (0 Comments)




Please login or create a FREE account to post comments

Latest Searches

| black dick big tits | teeth of naros skidrow crack | merry metal | Spawn 1994 | Angry babys | drakensang phileassons secret crack | Notice Me Step Daddy | The Librarians 1x10 | o doce | o deco |