Quick Browse
Movies
TV shows
Music
Games
Applications
Anime
Other
Facebook
Advertising

Friends
Torrent Download
Movie4u
1337x.to
Torrent Downloads




Verified torrent Honey 2 2011 BDRip XVID AC3 HQ Hive-CM8


    Seeders : 1      Leechers : 0
Hash :5BE157608A2C4CAD53CCE53D9D6A5D1A41A8F7FB
Added :1 Year+ by memory100Verified torrent uploader in Movies
Size :1.71 GB
Stream :WATCH ONLINE @ Movie4u


Honey 2 2011 BDRip XVID AC3 HQ Hive-CM8
Free and Fast Download with Usenet 300GB+ free







Trackers List

Tracker NameLast CheckStatusSeedersLeechers




Torrent File Content (9 files)


Honey.2.2011.BDRip.XVID.AC3.HQ.Hive-CM8
     HDSceneRG.txt -
115 bytes

     Honey.2.2011.BDRip.XVID.AC3.HQ.Hive-CM8.avi -
1.69 GB

     Honey.2.2011.BDRip.XVID.AC3.HQ.Hive-CM8.nfo -
3.92 KB

     Torrent downloaded from Demonoid.me.txt -
46 bytes

     Torrent downloaded from Suprnova.me.txt -
42 bytes

     att-networks.com.txt -
39 bytes

     sample.avi -
16.45 MB

     sceneunderground.org.txt -
77 bytes

    subs
          Honey.2.2011.BDRip.XVID.AC3.HQ.Hive-CM8.srt -
102.3 KB



Description



http://img805.imageshack.us/img805/6364/honeyf.jpg

[code]
Honey.2.2011.BDRip.XVID.AC3.HQ.Hive-CM8


Thx Hive

CM8 Doing It Right The First Time


Source: Bluray

Video: 720x400 @bitrate 1800 2pass
Audio: English DTS to AC3 5.1 @384
Sample: yes included
Subs: yes english in srt /subs


http://www.imdb.com/title/tt1657283/


General
Complete name : Honey.2.2011.BDRip.XVID.AC3.HQ.Hive-CM8.avi
Format : AVI
Format/Info : Audio Video Interleave
File size : 1.69 GiB
Duration : 1h 50mn
Overall bit rate : 2 192 Kbps
Writing application : Nandub v1.0rc2
Writing library : Nandub build 1853/release

Video
ID : 0
Format : MPEG-4 Visual
Format profile : Advanced [email protected]
Format settings, BVOP : 1
Format settings, QPel : Yes
Format settings, GMC : No warppoints
Format settings, Matrix : Default (H.263)
Muxing mode : Packed bitstream
Codec ID : XVID
Codec ID/Hint : XviD
Duration : 1h 50mn
Bit rate : 1 798 Kbps
Width : 720 pixels
Height : 400 pixels
Display aspect ratio : 16:9
Frame rate : 23.976 fps
Color space : YUV
Chroma subsampling : 4:2:0
Bit depth : 8 bits
Scan type : Progressive
Compression mode : Lossy
Bits/(Pixel*Frame) : 0.260
Stream size : 1.39 GiB (82%)
Writing library : XviD 1.2.1 (UTC 2008-12-04)

Audio
ID : 1
Format : AC-3
Format/Info : Audio Coding 3
Mode extension : CM (complete main)
Codec ID : 2000
Duration : 1h 50mn
Bit rate mode : Constant
Bit rate : 384 Kbps
Channel(s) : 6 channels
Channel positions : Front: L C R, Side: L R, LFE
Sampling rate : 48.0 KHz
Bit depth : 16 bits
Compression mode : Lossy
Stream size : 304 MiB (18%)
Alignment : Split accross interleaves
Interleave, duration : 42 ms (1.00 video frame)
Interleave, preload duration : 500 ms



Plot:

Recently released from juvenile detention, talented dancer Maria Ramirez
finds an outlet for her passion with a new dance crew.


Cast:

George Alexander ... 718 Crew #1 (as George 'Gee' Alexander)
Gerry Bednob ... Mr. Kapoor
Aaron Benjamin ... Production Assistant
Ariana Berlin ... 718 Crew #3
Luke Broadlick ... HD Crew #1
[/code]
Screens:
http://img818.imageshack.us/img818/8356/43564101.png

http://img534.imageshack.us/img534/5701/19377254.png

http://img841.imageshack.us/img841/709/91207409.png

http://img716.imageshack.us/img716/2209/10322429.png

http://img199.imageshack.us/img199/2563/53460546.png

http://img687.imageshack.us/img687/3986/31106992.png

Related torrents

Torrent NameAddedSizeSeedLeechHealth
1 Year+ - in Movies1.71 GB1537
1 Year+ - in Movies1.71 GB00
1 Year+ - in Movies1.71 GB314
1 Year+ - in Movies1.78 GB014
7 months ago - in Movies1.43 GB00

Comments (0 Comments)




Please login or create a FREE account to post comments

Latest Searches

| hot college girl sex | Conviction 2016 S01E09 720p | best of sweet mp3 | dark innocent | ufs explorer standard access 4 0 | xy video | scandals in sex | The Inside Story of a Wall Street | peregrine etrg | Queen divas De nesha diamond |