Quick Browse
Movies
TV shows
Music
Games
Applications
Anime
Other

Donate and Support

Friends
Torrents.me
Torrent Download
Free Movies
1337x
RARBG
Torrent Downloads

Verified torrent Honey Moon DVD TEAM TDA Xclusive


    Seeders : 0      Leechers : 2
Hash :B9DAB96C1FD602BD1E379DA6E88CCEBC0FCF9667
Added :1 Year+ by striker123Verified torrent uploader in Movies
Size :1.21 GB
Stream :Watch Full Movies Online @ Movie4u
Share :


Honey Moon DVD TEAM TDA Xclusive
Anonymous and Direct Download 300GB+ free







Warning! Do not Download Torrents Without a VPN!
Your IP Address is .   And Location is
Your Internet Provider and Government can track your torrent Activity!  Hide your IP ADDRESS with a VPN!
We Strongly Recommend Using SpyOFF Torrent VPN to Anonymize your Torrenting. It's FREE For 15 Days!

Note :

Please Update (Trackers Info) Before Downloading Torrents to See Updated Seeders And Leechers for Batter Download Speed.

Trackers List

Tracker NameLast CheckStatusSeedersLeechers




Torrent File Content (8 files)


H0NEY_M00N
     Torrent Downloaded From (TheDesiadda.com).txt -
28 bytes

    VIDEO_TS
          VIDEO_TS.BUP -
6 KB

          VIDEO_TS.IFO -
6 KB

          VTS_01_0.BUP -
74 KB

          VTS_01_0.IFO -
74 KB

          VTS_01_1.VOB -
1024 MB

          VTS_01_2.VOB -
215.25 MB

     teamtdabanner.jpg -
681.47 KB



Description



[SIZE="4"][COLOR="Magenta"]Honey Moon DVD TEAM TDA Xclusive[/COLOR][/SIZE]

http://i813.photobucket.com/albums/zz59/krishnlm143/logoo.png


http://i813.photobucket.com/albums/zz59/krishnlm143/FileInfo.png


[code]
General

Complete name :H0NEY_M00N

Format : MPEG-PS

File size : 1.20gb

Duration : 2h 12mn 36ss

Overall bit rate : 1 307 Kbps



Video

ID : 224 (0xE0)

Format : MPEG Video

Format version : Version 2

Format profile : [email protected]

Format settings, BVOP : Yes

Format settings, Matrix : Default

Duration : 2h 12mn 36ss

Bit rate mode : Variable

Bit rate : 1 089 Kbps

Nominal bit rate : 6 000 Kbps

Width : 720 pixels

Height : 480 pixels

Display aspect ratio : 4:3

Frame rate : 29.970 fps

Standard : NTSC

Color space : YUV

Chroma subsampling : 4:2:0

Bit depth : 8 bits

Scan type : Interlaced

Scan order : Bottom Field First

Bits/(Pixel*Frame) : 0.105

Stream size : 853 MiB (83%)



Audio

ID : 128 (0x80)

Format : AC-3

Format/Info : Audio Coding 3

Format profile : Dolby Digital

Mode extension : CM (complete main)

Duration : 2h 12mn 36ss

Bit rate mode : Constant

Bit rate : 192 Kbps

Channel(s) : 2 channels

Channel positions : Front: L R

Sampling rate : 48.0 KHz

Bit depth : 16 bits

Stream size : 150 MiB (15%)



[/code]

http://i813.photobucket.com/albums/zz59/krishnlm143/screens.png



[URL=http://www.turboimagehost.com/p/4933615/1_1.png.html]
http://s1d2.turboimagehost.com/t/4933615_1_1.png
[/URL]
[URL=http://www.turboimagehost.com/p/4933616/1_10.png.html]
http://s1d2.turboimagehost.com/t/4933616_1_10.png
[/URL] [URL=http://www.turboimagehost.com/p/4933617/1_11.png.html]
http://s1d2.turboimagehost.com/t/4933617_1_11.png
[/URL] [URL=http://www.turboimagehost.com/p/4933618/1_12.png.html]
http://s1d2.turboimagehost.com/t/4933618_1_12.png
[/URL] [URL=http://www.turboimagehost.com/p/4933619/1_14.png.html]
http://s1d2.turboimagehost.com/t/4933619_1_14.png
[/URL] [URL=http://www.turboimagehost.com/p/4933620/1_16.png.html]
http://s1d2.turboimagehost.com/t/4933620_1_16.png
[/URL] [URL=http://www.turboimagehost.com/p/4933621/1_2.png.html]
http://s1d2.turboimagehost.com/t/4933621_1_2.png
[/URL] [URL=http://www.turboimagehost.com/p/4933622/1_3.png.html]
http://s1d2.turboimagehost.com/t/4933622_1_3.png
[/URL] [URL=http://www.turboimagehost.com/p/4933623/1_4.png.html]
http://s1d2.turboimagehost.com/t/4933623_1_4.png
[/URL] [URL=http://www.turboimagehost.com/p/4933624/1_5.png.html]
http://s1d2.turboimagehost.com/t/4933624_1_5.png
[/URL] [URL=http://www.turboimagehost.com/p/4933625/1_6.png.html]
http://s1d2.turboimagehost.com/t/4933625_1_6.png
[/URL] [URL=http://www.turboimagehost.com/p/4933626/1_8.png.html]
http://s1d2.turboimagehost.com/t/4933626_1_8.png
[/URL]

[SIZE="4"][COLOR="Magenta"]~~INDIRECT SUPERSEEDING...[/COLOR][/SIZE]


http://i813.photobucket.com/albums/zz59/krishnlm143/Download-1.png

Related torrents

Torrent NameAddedSizeSeedLeechHealth
Verified torrent
1 Year+ - in Movies693.43 MB4621,072
1 Year+ - in Other1.06 GB00
1 Year+ - in Other1.03 GB16
1 Year+ - in Other1.74 GB00
1 Year+ - in Other1.42 GB00

Comments (0 Comments)




Please login or create a FREE account to post comments

Latest Searches

| sybex networking | ARIELLA FERRERA DAMON DICE | endless tempest | I duce | photoshop one on one 2017 | Fear The Walking Dead Season 03 Episode 6 | Fear The Walking Dead Season 3 Episode 6 | right back long beach dub allstars | MilfsLikeItBig Brazzers Janna Hicks The Care Package 02 06 2017 | more fast and the furious |