Quick Browse
Movies
TV shows
Music
Games
Applications
Anime
Other
Facebook
Advertising

Friends
Torrent Download
Movie4u
1337x.to
Torrent Downloads




Verified torrent Hop 2011 PPVRiP XViD-IMAGiNE


    Seeders : 0      Leechers : 0
Hash :3D6845406E776C20EE9EDE993FA91FCE94EA0423
Added :1 Year+ by memory100Verified torrent uploader in Movies
Size :1.45 GB
Stream :WATCH ONLINE @ Movie4u


Hop 2011 PPVRiP XViD-IMAGiNE
Free and Fast Download with Usenet 300GB+ free







Trackers List

Tracker NameLast CheckStatusSeedersLeechers




Torrent File Content (9 files)


Hop 2011 PPVRiP XViD - IMAGiNE
     Budget seedboxs.txt -
44 bytes

     Hop 2011 PPVRiP XViD - IMAGiNE SAMPLE.avi -
12.73 MB

     Hop 2011 PPVRiP XViD - IMAGiNE.NFO -
4.75 KB

     Hop 2011 PPVRiP XViD - IMAGiNE.avi -
1.43 GB

     NW RG.nfo -
12.96 KB

     Torrent downloaded from Demonoid.me.txt -
46 bytes

     dreamthe.net.txt -
91 bytes

     northernwarriors.net.txt -
135 bytes

     sceneunderground.org.txt -
77 bytes



Description



http://i.imgur.com/kA8MZ.jpg

[code]
Hop 2011 PPVRiP XViD - IMAGiNE

Ripper ...........: IMAGiNE IMDB Rating.......: 5.1/10
Video Codec.......: XVID Release Date......: 05/06/11
Audio Codec.......: MP3 Theatre Date......: 01/04/11
Audio Bitrate.....: 224 Runtime.......: 1h 34mn
Subtitles.........: NIL Language..........: ENGLISH
Resolution......: 640 x 480 IMDb URL..........: http://www.imdb.com/title/tt1411704/

DETAILS:

Video
ID : 0
Format : MPEG-4 Visual
Format profile : Advanced [email protected]
Format settings, BVOP : 2
Format settings, QPel : No
Format settings, GMC : No warppoints
Format settings, Matrix : Default (MPEG)
Muxing mode : Packed bitstream
Codec ID : XVID
Codec ID/Hint : XviD
Duration : 1h 34mn
Bit rate : 1 933 Kbps
Width : 640 pixels
Height : 480 pixels
Display aspect ratio : 4:3
Frame rate : 29.970 fps
Color space : YUV
Chroma subsampling : 4:2:0
Bit depth : 8 bits
Scan type : Progressive
Compression mode : Lossy
Bits/(Pixel*Frame) : 0.210
Stream size : 1.28 GiB (89%)
Writing library : XviD 61



Audio
ID : 1
Format : MPEG Audio
Format version : Version 1
Format profile : Layer 2
Codec ID : 50
Duration : 1h 34mn
Bit rate mode : Constant
Bit rate : 224 Kbps
Channel(s) : 2 channels
Sampling rate : 48.0 KHz
Compression mode : Lossy
Delay relative to video : 11ms
Stream size : 152 MiB (10%)
Alignment : Split accross interleaves
Interleave, duration : 33 ms (1.00 video frame)

Plot:
E.B., the Easter Bunny's teenage son, heads to Hollywood, determined to become a drummer in a rock 'n' roll band. In LA, he's taken in by Fred after the out-of-work slacker hits E.B. with his car.

SOURCES:
Thanks M8ty

NOTES:

IMAGiNE bringing you another release..........
Hop PPVRiP..........
Here we are with a nice ppvrip of Hop
Source files were very nice,
just needed some adjustment to the colors
Light vertical flicker on this one, not to bad tho
Then we remuxed the audio to our encode and there ya go
Much better than previous cam
so will do till something better shows up....
Anyhow
Enjoy Folks!
[/code]
Screens:
http://i.imgur.com/x9YXJ.jpg

http://i.imgur.com/MGPt4.jpg

http://i.imgur.com/GKkGy.jpg

http://i.imgur.com/2dNFC.jpg

Related torrents

Torrent NameAddedSizeSeedLeechHealth
1 Year+ - in Movies1.45 GB16999
1 Year+ - in Movies1.7 GB04
1 Year+ - in Movies347.68 MB00
1 Year+ - in Movies1.44 GB186
1 Year+ - in Movies743.28 MB19

Comments (0 Comments)




Please login or create a FREE account to post comments

Latest Searches

| Beatport Top 100 december 2016 | episode 1 english sub | eminem what you | catelynn tyler | Ghosts lap | collection of shorts 1936 2010 1080p bluray x264 don | Discover Magazine USA Extreme Earth 2012 | Rocky ft asap | porn mom threesome | marvels agents of s h i e l d 7 |