Quick Browse
Movies
TV shows
Music
Games
Applications
Anime
Other

Donate and Support

Friends
Torrents.me
Torrent Download
Free Movies
1337x
RARBG
Torrent Downloads

Verified torrent Hop 2011 TS V2 READNFO XViD - IMAGiNE


    Seeders : 0      Leechers : 1

Hash :8A94D9009B1B2CC1E58DD3CFF8C7F9F1268A0F1F
Added :1 Year+ by memory100Verified torrent uploader in Movies
Size :1.3 GB
Stream :Watch Online Full Movie @ Movie4u
Share :


Hop 2011 TS V2 READNFO XViD - IMAGiNE
Anonymous and free Direct Download







Warning! Do not Download Torrents Without a VPN!
Your IP Address is .   And Location is
Your Internet Provider and Government can track your torrent Activity!  Hide your IP ADDRESS with a VPN!
We Strongly Recommend Using SpyOFF Torrent VPN to Anonymize your Torrenting. It's FREE For 15 Days!

Note :

Please Update (Trackers Info) Before Downloading Torrents to See Updated Seeders And Leechers for Batter Download Speed.

Trackers List

Tracker NameLast CheckStatusSeedersLeechers




Torrent File Content (9 files)


Hop 2011 TS V2 READNFO XViD - IMAGiNE
     Budget seedboxs.txt -
44 bytes

     Hop 2011 TS V2 READNFO XViD - IMAGiNE SAMPLE.avi -
20.35 MB

     Hop 2011 TS V2 READNFO XViD - IMAGiNE.NFO -
6.06 KB

     Hop 2011 TS V2 READNFO XViD - IMAGiNE.avi -
1.28 GB

     NW RG.nfo -
12.96 KB

     Torrent downloaded from Demonoid.me.txt -
46 bytes

     northernwarriors.net.txt -
135 bytes

     sceneunderground.org.txt -
77 bytes

     visiontracker.net.txt -
91 bytes



Description



http://img860.imageshack.us/img860/857/postersf.jpg

[code]
Hop 2011 TS V2 READNFO XViD - IMAGiNE

Ripper ...........: IMAGiNE IMDB Rating.......:6.1/10
Video Codec.......: XVID Release Date......:26/04/11
Audio Codec.......:MP3 Theatre Date......:01/04/11
Audio Bitrate.....:128 Runtime.......:1h 24mn
Subtitles.........:NIL Language..........:ENGLISH
Resolution...... 640 x 336 IMDb URL.......... http://www.imdb.com/title/tt1411704/

DETAILS:

Video
ID : 0
Format : MPEG-4 Visual
Format profile : Advanced [email protected]
Format settings, BVOP : 2
Format settings, QPel : No
Format settings, GMC : No warppoints
Format settings, Matrix : Default (MPEG)
Muxing mode : Packed bitstream
Codec ID : XVID
Codec ID/Hint : XviD
Duration : 1h 24mn
Bit rate : 2 025 Kbps
Width : 640 pixels
Height : 336 pixels
Display aspect ratio : 1.905
Frame rate : 30.000 fps
Color space : YUV
Chroma subsampling : 4:2:0
Bit depth : 8 bits
Scan type : Progressive
Compression mode : Lossy
Bits/(Pixel*Frame) : 0.314
Stream size : 1.20 GiB (94%)
Writing library : XviD 61

Audio
ID : 1
Format : MPEG Audio
Format version : Version 1
Format profile : Layer 3
Mode : Joint stereo
Mode extension : MS Stereo
Codec ID : 55
Codec ID/Hint : MP3
Duration : 1h 24mn
Bit rate mode : Constant
Bit rate : 128 Kbps
Channel(s) : 2 channels
Sampling rate : 44.1 KHz
Compression mode : Lossy
Stream size : 77.7 MiB (6%)
Alignment : Split accross interleaves
Interleave, duration : 33 ms (1.00 video frame)
Writing library : LAME3.98r
Encoding settings : -m j -V 4 -q 2 -lowpass 17 -b 128

Plot:E.B., the Easter Bunny's teenage son, heads to Hollywood, determined to become a drummer in a rock 'n' roll band. In LA, he's taken in by Fred after the out-of-work slacker hits E.B. with his car.

SOURCES:
VIDEO:Thanks to a special friend
AUDIO:Thanks M8ty

NOTES:
IMAGiNE bringing you another release..........Hop 2011

IMAGiNE doing it right first time with all the special filters that no one else uses or knows about,except 007....

No need for the rest ,when we're the best.....we turn line audio into cam with 12.1 surround sound.
Oh also tested and it works on my Dreamcast,amstrad 64 and my old record player....never worked in the tape deck though.

Ok guys this was given to us in 3 parts...part 1 and 3 were good...not much cropping,decent colours and brightness levels were good.

Now part 2...this is were the camera was knock and only got half the screen,this part lasted for 12mins.

What we done was filter all the videos the same ,changing the colour,brightness,contrast,sharpness etc....also had to rotate and use a perspective filter on all the parts.

Now for part two we had to make the res the same as part 1 and 3 so we could append all the files into one...so the AR is whacked on them 12mins.

Oh also missing 3mins 42 secs off the begining.....still starts whilst the credits are rolling but there's a little intro part thats not on it....could have took it off the other release,but man that flicker.

Once the video was all encode the audio we have needed to be resynced to this new video source......

AND YES IT IS FECKING LINE AUDIO!!!

But now doubt some dumbass will say its cam and wait for the a brrip ( well fuck right off ) On that note Enjot Folks
[/code]
Screens:
http://img4.imageshack.us/img4/1573/81951238.jpg

http://img194.imageshack.us/img194/1983/21548714.jpg

http://img577.imageshack.us/img577/5638/80982546.jpg

http://img219.imageshack.us/img219/8418/93264019.jpg

http://img717.imageshack.us/img717/9758/68647903.jpg

http://img402.imageshack.us/img402/7845/44115735.jpg

Related torrents

Torrent NameAddedSizeSeedLeechHealth
2 Good
1 Year+ - in Movies1.3 GB3288
1 Year+ - in Movies1.3 GB014
1 Year+ - in Movies1.39 GB15163
1 Year+ - in Movies1.39 GB02
1 Year+ - in Movies1.39 GB16

Comments (0 Comments)




Please login or create a FREE account to post comments

Latest Searches

| american horror story lol mp4 | scenarist 6 0 | americans s01e01 720p hdtv | demain tout commence 2016 bluray | 18onlygirls Fun For Three | Zero Fairy Tail Season 2 85 96 BD 720p Dual Audio Hi10 | Hooten and the Lady tla | Charlottes Web 1973 1080p WEBRip DD2 0 x264 | english lexicon | cookie and milk |