Quick Browse
TV shows

Latest Articles

Torrent Download
Free Movies
Torrent Downloads

Horton Hears a Who! (2008)(MPEG-4)(IPONE)(Dutch) 2Lions-Team

    Seeders : 3      Leechers : 10

Hash :A4640EA3716881F8BE7390DD2C4C599E74745AB3
Added :1 Year+ in Movies
Size :964.69 MB
Stream :Watch Online Full Movie @ Movie4u
Share :

Warning! Do not Download Torrents Without a VPN!
Your IP Address is .   And Location is
Your Internet Provider and Government can track your torrent Activity!  Hide your IP ADDRESS with a VPN!
We Strongly Recommend Using CyberGhost VPN to Anonymize your Torrenting.

Note :

Please Update (Trackers Info) Before Downloading Torrents to See Updated Seeders And Leechers for Batter Download Speed.

Trackers List

Tracker NameLast CheckStatusSeedersLeechers

Torrent File Content (5 files)

Horton Hears a Who! (2008)(MPEG-4)(IPONE)(Dutch) 2Lions-Team
    INFO 2Lions-Team
          logo 2Lions.jpg -
314.99 KB

          Horton Hears a Who! (2008).jpg -
24.25 KB

          Horton Hears a Who! (2008)(MPEG-4)(IPONE)(Dutch) 2Lions-Team.txt -
3.56 KB

          Torrents aan geboden door _2lions.ons-forum.nl.txt -
583 bytes

          Horton.mp4 -
964.36 MB


Horton Hears a Who! (2008)(MPEG-4)(IPONE)(Dutch) 2Lions-Team 

Alternatieve titels: Dr. Seuss' Horton Hears a Who!, Horton


Verenigde Staten
Animatie / Familie
88 minuten

geregisseerd door Jimmy Hayward en Steve Martino
met de stemmen van Jim Carrey, Steve Carell en Carol Burnett

Diep in de jungle hoort een kleine olifant plots een stem uit een klein
stofdeeltje. Het blijkt een minuscule planeet te zijn waar de stad
Who-Ville op gelegen is. De Who's geven Horton de opdracht hun
planeet te beschermen met behulp van zijn vrienden. Naar het
verhaal van Dr. Seuss.


One day, Horton the elephant hears a cry from help coming from a speck of dust. Even though he can't see anyone on the
speck, he decides to help it. As it turns out, the speck of dust is home to the Whos, who live in their city of
Whoville. Horton agrees to help protect the Whos and their home, but this gives him nothing but torment from his
neighbors, who refuse to believe that anything could survive on the speck. Still, Horton stands by the motto that,
"After all, a person is a person, no matter how small."

Weblink : http://www.moviemeter.nl/film/39188
Genre : Animatie

Audio : Dutch

[code] Format : MPEG-4
Format profile : Base Media
Codec ID : isom
File size : 964 MiB
Duration : 1h 22mn
Overall bit rate : 1 632 Kbps

ID : 1
Format : MPEG-4 Visual
Format profile : [email protected]
Format settings, BVOP : No
Format settings, QPel : No
Format settings, GMC : No warppoints
Format settings, Matrix : Default (H.263)
Codec ID : 20
Duration : 1h 22mn
Bit rate mode : Variable
Bit rate : 1 499 Kbps
Width : 720 pixels
Height : 406 pixels
Display aspect ratio : 16/9
Frame rate mode : Constant
Frame rate : 25.000 fps
Resolution : 24 bits
Colorimetry : 4:2:0
Scan type : Progressive
Bits/(Pixel*Frame) : 0.205
Stream size : 886 MiB (92%)
Writing library : Lavc51.40.4

ID : 2
Format : AAC
Format/Info : Advanced Audio Codec
Format version : Version 4
Format profile : LC
Format settings, SBR : No
Codec ID : 40
Duration : 1h 22mn
Bit rate mode : Variable
Bit rate : 128 Kbps
Channel(s) : 2 channels
Channel positions : L R
Sampling rate : 48.0 KHz
Resolution : 16 bits
Stream size : 75.6 MiB (8%)[/code]

Weblink : http://www.moviemeter.nl/film/39188
Weblink : http://www.imdb.com/title/tt0451079


Brought to you by

2Lions Team


2Lions-Team for all your Dutch MOVIES and more


DON T HIT AND RUN Niet gelijk afhaken als de film binnen is blijf seeden.

Related torrents

Torrent NameAddedSizeSeedLeechHealth
1 Year+ - in Movies4.29 GB111
1 Year+ - in Movies879.92 MB25
5 months ago - in Movies1.09 GB00
5 months ago - in Movies1.36 GB00
5 months ago - in Movies1.64 GB00

Note :

Feel free to post any comments about this torrent, including links to Subtitle, samples, screenshots, or any other relevant information. Please Dont Download anything from Comments, And Dont Post Links to Streaming Sites like Fmovies, Xmovies8, 123Movies, GoMovies, CMovieshd, Solarmovie, Watchfree, Putlockers, GoStream, m4ufree etc.

Comments (0 Comments)

Please login or create a FREE account to post comments

Latest Searches

| Family Guy s16e12 HDTV | Treehouse Masters Shaq S10E08 | casting angel black | OUTSIDERS H264 | First Dates Hotel S02E04 | s roof top | superunitedkingdom weathering | Wild Ones flo rida album | Jaggu Dada 2016 DTH x264 AAC 1GB DDR | agile for dummies ibm pdf |