Quick Browse
Movies
TV shows
Music
Games
Applications
Anime
Other
Facebook
Advertising

Friends
Torrent Download
Movie4u
1337x.to
Torrent Downloads




Horton Hears a Who! (2008)(MPEG-4)(IPONE)(Dutch) 2Lions-Team


    Seeders : 3      Leechers : 10
Hash :A4640EA3716881F8BE7390DD2C4C599E74745AB3
Added :1 Year+ in Movies
Size :964.69 MB
Stream :WATCH ONLINE @ Movie4u


Horton Hears a Who! (2008)(MPEG-4)(IPONE)(Dutch) 2Lions-Team
Free and Fast Download with Usenet 300GB+ free







Trackers List

Tracker NameLast CheckStatusSeedersLeechers




Torrent File Content (5 files)


Horton Hears a Who! (2008)(MPEG-4)(IPONE)(Dutch) 2Lions-Team
    INFO 2Lions-Team
          logo 2Lions.jpg -
314.99 KB

          Horton Hears a Who! (2008).jpg -
24.25 KB

          Horton Hears a Who! (2008)(MPEG-4)(IPONE)(Dutch) 2Lions-Team.txt -
3.56 KB

          Torrents aan geboden door _2lions.ons-forum.nl.txt -
583 bytes

    MOVIE
          Horton.mp4 -
964.36 MB



Description



Horton Hears a Who! (2008)(MPEG-4)(IPONE)(Dutch) 2Lions-Team 

Alternatieve titels: Dr. Seuss' Horton Hears a Who!, Horton

http://img43.imageshack.us/img43/8527/hortonhearsawho2008.jpg



Verenigde Staten
Animatie / Familie
88 minuten

geregisseerd door Jimmy Hayward en Steve Martino
met de stemmen van Jim Carrey, Steve Carell en Carol Burnett

Diep in de jungle hoort een kleine olifant plots een stem uit een klein
stofdeeltje. Het blijkt een minuscule planeet te zijn waar de stad
Who-Ville op gelegen is. De Who's geven Horton de opdracht hun
planeet te beschermen met behulp van zijn vrienden. Naar het
verhaal van Dr. Seuss.

English

One day, Horton the elephant hears a cry from help coming from a speck of dust. Even though he can't see anyone on the
speck, he decides to help it. As it turns out, the speck of dust is home to the Whos, who live in their city of
Whoville. Horton agrees to help protect the Whos and their home, but this gives him nothing but torment from his
neighbors, who refuse to believe that anything could survive on the speck. Still, Horton stands by the motto that,
"After all, a person is a person, no matter how small."




Weblink : http://www.moviemeter.nl/film/39188
Genre : Animatie

Familiefilm
Kinderfilm
Audio : Dutch

[code] Format : MPEG-4
Format profile : Base Media
Codec ID : isom
File size : 964 MiB
Duration : 1h 22mn
Overall bit rate : 1 632 Kbps


Video
ID : 1
Format : MPEG-4 Visual
Format profile : [email protected]
Format settings, BVOP : No
Format settings, QPel : No
Format settings, GMC : No warppoints
Format settings, Matrix : Default (H.263)
Codec ID : 20
Duration : 1h 22mn
Bit rate mode : Variable
Bit rate : 1 499 Kbps
Width : 720 pixels
Height : 406 pixels
Display aspect ratio : 16/9
Frame rate mode : Constant
Frame rate : 25.000 fps
Resolution : 24 bits
Colorimetry : 4:2:0
Scan type : Progressive
Bits/(Pixel*Frame) : 0.205
Stream size : 886 MiB (92%)
Writing library : Lavc51.40.4


Audio
ID : 2
Format : AAC
Format/Info : Advanced Audio Codec
Format version : Version 4
Format profile : LC
Format settings, SBR : No
Codec ID : 40
Duration : 1h 22mn
Bit rate mode : Variable
Bit rate : 128 Kbps
Channel(s) : 2 channels
Channel positions : L R
Sampling rate : 48.0 KHz
Resolution : 16 bits
Stream size : 75.6 MiB (8%)[/code]




Weblink : http://www.moviemeter.nl/film/39188
Weblink : http://www.imdb.com/title/tt0451079

*****************************************


Brought to you by
Pioen
http://i226.photobucket.com/albums/dd118/FloraKing/Avator/bloemenmeisje.gif

2Lions Team



http://i845.photobucket.com/albums/ab16/hortencia9/_96637_four_weddings_and_a_funeral_.jpg



2Lions-Team for all your Dutch MOVIES and more

*****************************************

DON T HIT AND RUN Niet gelijk afhaken als de film binnen is blijf seeden.

Related torrents

Torrent NameAddedSizeSeedLeechHealth
1 Year+ - in Movies4.29 GB111
1 Year+ - in Movies879.92 MB25
1 Year+ - in Movies697.08 MB10233
8 months ago - in Movies1.04 GB00
8 months ago - in Movies1.65 GB00

Comments (0 Comments)




Please login or create a FREE account to post comments

Latest Searches

| ohys raws rail wars 01 tbs 1280x720 x264 aac mp4 | The Big Bang Theory S10E07 1080p HDTV x264 state | only tease hayley s 720p | the shack shakers | once upon a time s06 eztv | john waite missing you | sexy blonde big cock | were | Exotic4K 16 12 07 Samantha Parker Bad Babysitter | Latin Destiny |