Quick Browse
Movies
TV shows
Music
Games
Applications
Anime
Other
Facebook
Advertising

Friends
Torrent Download
Movie4u
1337x.to
Torrent Downloads




Verified torrent Hot & Sexy XXX DVDRIP[TDADevil]


    Seeders : 0      Leechers : 1
Hash :F3817554A01B3DAD305F4954C9096112A0A137FC
Added :1 Year+ by Vamp111Verified torrent uploader in Other - Other
Size :697.46 MB
Stream :WATCH ONLINE @ Movie4u


Hot & Sexy XXX DVDRIP[TDADevil]
Free and Fast Download with Usenet 300GB+ free







Trackers List

Tracker NameLast CheckStatusSeedersLeechers




Torrent File Content (2 files)


Hot & Sexy XXX DVDRIP
     Hot & Sexy XXX DVDRIP.avi -
697.46 MB

     Thedesiadda.com.txt -
64 bytes



Description



http://www.desiupload.com/out.php/i505622_HotSexyXXXDVDRIP2010092517032065.jpg

http://www.desiupload.com/out.php/i505620_HotSexyXXXDVDRIP2010092517010015.jpg

http://www.desiupload.com/out.php/i505619_HotSexyXXXDVDRIP2010092517005406.jpg

http://www.desiupload.com/out.php/i505621_HotSexyXXXDVDRIP2010092517012625.jpg

http://www.desiupload.com/out.php/i505623_HotSexyXXXDVDRIP2010092517042704.jpg


Video
ID : 0
Format : MPEG-4 Visual
Format profile : Advanced [email protected]
Format settings, BVOP : Yes
Format settings, QPel : No
Format settings, GMC : No warppoints
Format settings, Matrix : Default (H.263)
Codec ID : XVID
Codec ID/Hint : XviD
Duration : 1h 19mn
Bit rate : 1 008 Kbps
Width : 464 pixels
Height : 352 pixels
Display aspect ratio : 4:3
Frame rate : 23.976 fps
Resolution : 8 bits
Colorimetry : 4:2:0
Scan type : Progressive
Bits/(Pixel*Frame) : 0.258
Stream size : 574 MiB (82%)
Writing library : XviD 1.2.0SMP (UTC 2006-01-08)

Audio
ID : 1
Format : MPEG Audio
Format version : Version 1
Format profile : Layer 3
Mode : Joint stereo
Format_Settings_ModeExtension : MS Stereo
Codec ID : 55
Codec ID/Hint : MP3
Duration : 1h 19mn
Bit rate mode : Variable
Bit rate : 205 Kbps
Nominal bit rate : 192 Kbps
Channel(s) : 2 channels
Sampling rate : 48.0 KHz
Stream size : 117 MiB (17%)
Alignment : Aligned on interleaves
Interleave, duration : 24 ms (0.58 video frame)
Interleave, preload duration : 280 ms

Related torrents

Torrent NameAddedSizeSeedLeechHealth
Verified torrent
1 Year+ - in Other700.87 MB00
11 months ago - in Other104.62 MB00
1 Year+ - in Other48.33 MB00
1 Year+ - in Other47.39 MB14
1 Year+ - in Other48.61 MB00

Comments (0 Comments)




Please login or create a FREE account to post comments

Latest Searches

| pdf xxx magazine | Sherlock S03E02 480p HDTV x264 350MB Micromkv mkv | graham norton show s20e09 | darf schlucken | gilmore girls a year in the life season 1 | 2nd December 2016 | GloryHoleSecrets Nikko | S01E03 Tell It To The Frogs mkv | Bailey Brooke Passion | ftvmilfs 16 12 |