Quick Browse
Movies
TV shows
Music
Games
Applications
Anime
Other
Facebook
Friends
Torrent Download
Free Movies
1337x.to
Torrent Downloads

Verified torrent House At The End Of The Street 2012 BDRip English [Accipiter]


    Seeders : 1      Leechers : 3
Hash :4EEE6DE76B14FA9B3CE916AF577B70EA4B5C6706
Added :1 Year+ by souravfileVerified torrent uploader in Movies
Size :690.34 MB
Stream :Watch Full Movies Online @ Movie4u
Share :


House At The End Of The Street 2012 BDRip English [Accipiter]
Anonymous and Direct Download 300GB+ free







Warning! Do not Download Torrents Without a VPN!
Your IP Address is .   And Location is
Your Internet Provider and Government can track your torrent Activity!  Hide your IP ADDRESS with a VPN!
We Strongly Recommend Using SpyOFF Torrent VPN to Anonymize your Torrenting. It's FREE For 15 Days!

Note :

Please Update (Trackers Info) Before Downloading Torrents to See Updated Seeders And Leechers for Batter Download Speed.

Trackers List

Tracker NameLast CheckStatusSeedersLeechers




Torrent File Content (3 files)


House At The End Of The Street 2012 BDRip English [Accipiter]
     House At The End Of The Street 2012 BDRip English [Accipiter].mkv -
690.34 MB

     Torrent Downloaded From Digtorrent.org.txt -
346 bytes

     Torrent downloaded from souravfile torrents on BTScene.eu.txt -
69 bytes



Description



http://hostpicturefree.com/images/bannerlnl.gif


Cover:

http://ia.media-imdb.com/images/M/MV5BMjIxNTUwNTU4N15BMl5BanBnXkFtZTcwNTE0MTI3Nw@@._V1._SY317_.jpg


Release info:

[code]General
Format : Matroska
Format version : Version 2
File size : 690 MiB
Duration : 1h 41mn
Overall bit rate mode : Variable
Overall bit rate : 948 Kbps


Video
ID : 1
Format : MPEG-4 Visual
Format profile : Advanced [email protected]
Format settings, BVOP : Yes
Format settings, QPel : No
Format settings, GMC : No warppoints
Format settings, Matrix : Default (H.263)
Codec ID : V_MS/VFW/FOURCC / XVID
Codec ID/Hint : XviD
Duration : 1h 41mn
Bit rate : 808 Kbps
Width : 640 pixels
Height : 272 pixels
Display aspect ratio : 2.35:1
Frame rate mode : Constant
Frame rate : 23.976 fps
Color space : YUV
Chroma subsampling : 4:2:0
Bit depth : 8 bits
Scan type : Progressive
Compression mode : Lossy
Bits/(Pixel*Frame) : 0.194
Stream size : 588 MiB (85%)
Writing library : XviD 61
Language : English
Default : Yes
Forced : No

Audio
ID : 2
Format : MPEG Audio
Format version : Version 1
Format profile : Layer 3
Mode : Joint stereo
Mode extension : MS Stereo
Muxing mode : Header stripping
Codec ID : A_MPEG/L3
Codec ID/Hint : MP3
Duration : 1h 41mn
Bit rate mode : Variable
Bit rate : 122 Kbps
Nominal bit rate : 128 Kbps
Channel(s) : 2 channels
Sampling rate : 48.0 KHz
Compression mode : Lossy
Stream size : 88.7 MiB (13%)
Language : English
Default : Yes
Forced : No



Source:
credit to original movie ripper TST (Thanks)[/code]

IMDB Info:

[code]A mother and daughter move to a new town and find themselves living next door to a house where a young girl murdered her parents. When the daughter befriends the surviving son, she learns the story is far from over.

Director: Mark Tonderai
Writers: David Loucka (screenplay), Jonathan Mostow (story)
Stars: Jennifer Lawrence, Elisabeth Shue and Max Thieriot

Genres: Horror | Thriller[/code]

http://www.imdb.com/title/tt1582507/

Screen Shot:

http://www.shotpix.com/images/29786599280926510628.png

http://www.shotpix.com/images/80112215229909089937.png

http://www.shotpix.com/images/50723503542202099664.png

http://www.shotpix.com/images/03275223367376549887.png

http://www.shotpix.com/images/45997772319405382480.png

http://www.shotpix.com/images/94988456763637964223.png

Related torrents

Torrent NameAddedSizeSeedLeechHealth
1 Year+ - in Movies1.21 GB16
1 Year+ - in Movies1.96 GB20
1 Year+ - in Movies589.16 MB2718
1 Year+ - in Movies2.18 GB00
1 Year+ - in Movies7.75 GB00

Comments (0 Comments)




Please login or create a FREE account to post comments

Latest Searches

| qualifying motogp 2017 | game thrones season 720p complete x264 | Daz3d poser 19308 jolly boat | Doctor Doctor S01E01 x264 | Doctor Doctor S01E01 x | H2 Euro Sluts | Swallowed Arya Fae Gina Valentina | xxx big compilation | BackroomFacials 13 07 27 Kelsi Monroe 720p MP4 KTR | This Aint Lady Gaga Parody Axel Braun Hustler |