Quick Browse
Movies
TV shows
Music
Games
Applications
Anime
Other
Facebook
Advertising

Friends
Torrent Download
Movie4u
1337x.to
Torrent Downloads




House S07E20 HDTV XviD Eng-Sub Ita-[IDN CREW]


    Seeders : 1      Leechers : 3
Hash :28BDC3BBE16158C4AECC80A20811AAE09E714EDD
Added :1 Year+ by manny02Verified torrent uploader in TV shows
Size :349.84 MB
Stream :WATCH ONLINE @ Movie4u


House S07E20 HDTV XviD Eng-Sub Ita-[IDN CREW]
Free and Fast Download with Usenet 300GB+ free







Trackers List

Tracker NameLast CheckStatusSeedersLeechers




Torrent File Content (3 files)


House.S07E20.HDTV.XviD.Eng-Sub Ita-[IDN_CREW]
     House.S07E20.HDTV.XviD.Eng-Sub Ita-[IDN_CREW].avi -
349.78 MB

     House.S07E20.HDTV.XviD.Eng-Sub Ita-[IDN_CREW].srt -
53.52 KB

     IDN_CREW Leggimi.txt -
294 bytes



Description



[color=lightskyblue]House - Settima Staggione - HDTVRip Eng Sub Ita[/color]


http://img824.imageshack.us/img824/4576/bbe1c2d805badf6c2e171b6.jpg


http://img514.imageshack.us/img514/1502/inforelease.png


[color=black]Nazionalità: [/color][color=teal]U.S.A.[/color]
[color=black]Genere: [/color] [color=teal] medical drama[/color]
[color=black]Stagione: [/color] [color=teal]7[/color]
[color=black]Episodi: [/color] [color=teal]22[/color]
[color=black]Durata: [/color] [color=teal]43 minuti ad episodio[/color]
[color=black]Lingua: [/color] [color=teal]Inglese[/color]
[color=black]Creato da: [/color] [color=teal] David Shore[/color]
[color=black]Distribuzione: [/color] [color=teal]Heel & Toe Productions, Bad Hat Harry Productions e NBC Universal Television[/color]

Interpreti e Personaggi

http://img442.imageshack.us/img442/7250/casta.jpg


[color=black]Hugh Laurie:[/color] [color=teal]Gregory House[/color]
[color=black]Lisa Edelstein: [/color] [color=teal]Lisa Cuddy[/color]
[color=black]Robert Sean Leonard: [/color] [color=teal]James Wilson[/color]
[color=black]Omar Epps: [/color] [color=teal]Eric Foreman[/color]
[color=black]Jesse Spencer: [/color] [color=teal]Robert Chase[/color]
[color=black]Peter Jacobson: [/color] [color=teal]Chris Taub [/color]
[color=black]Olivia Wilde: [/color] [color=teal]Remy "Tredici" Hadley[/color]

[color=black]Inoltre prossimamente in lista nuovi nomi di Guest Star che prenderanno parte ad alcuni episodi[/color]

http://img153.imageshack.us/img153/7608/tramao.png


http://img255.imageshack.us/img255/9728/house7poster2.jpg


[color=teal] Con l’arrivo dell’autunno stanno riprendendo tutte le serie tv più seguite dai telespettatori, una tra queste è quella del Dr. House. Nei giorni scorsi è giunta la voce della morte del doppiatore italiano proprio del protagonista, l’irriverente House che con la sua ironia ci ha tenuto compagnia in questi anni.

Sicuramente tra i medical drama finora prodotti e trasmessi, il posto d’onore nella hit parade spetta al Dr House.
Un serial che ha saputo sapientemente mescolare i cardini del genere con la costruzione davvero geniale di un personaggio.
Dr. House - Medical Division (House, M.D.) è una serie televisiva statunitense ideata da David Shore e Paul Attanasio e trasmessa da Fox a partire dal 2004; l'emittente televisiva ha ufficialmente accreditato Shore come creatore. La serie è incentrata attorno al ruolo del dottor Gregory House, un medico poco convenzionale ma dotato di grande capacità ed esperienza, a capo di una squadra di medicina diagnostica presso il fittizio ospedale universitario Princeton-Plainsboro Teaching Hospital, nel New Jersey.
Finora abbiamo avuto il piacere di vedere ben sei stagioni di Dr House e il grande ritorno con la settima stagione di Dr. House. Dopo avere visto un emozionante finale nella scorsa stagione in cui House e Cuddy dichiaravano apertamente i sentimenti che nutrivano l’uno per l’altro, li rivediamo ad esplorare tutte le emozioni che provano e i loro progetti per far funzionare la loro relazione. In definitiva la settima sarà la stagione della febbre "Huddy” (Il nome Huddy non è quello di un nuovo personaggio, bensì deriva dalla fusione tra House e Cuddy), quindi una stagione dell'amore per il Dr.House che, tra una malattia rara ed un'altra, dovrà anche condurre una vita sentimentale.
Il solo pensiero fa sorridere e, soprattutto, fa venire la curiosità su come gli autori gestiranno al cosa, la Cuddy ed il Dr.House non sono propriamente due personaggi da intreccio sentimentale.[/color]

EPISODI

[color=black]1. Now What?
2. Selfish
3. Unwritten
4. Massage Therapy
5. Unplanned Parenthood
6. Office Politics
7. A Pox on Our House
8. Small Sacrifices
9. Larger Than Life
10.Carrot or Stick
11. Family Practice
12. You Must Remember This
13. Two Stories
14. Recession Proof
15. Bombshells
16. Out of the Chute
17. Fall from Grace
18. The Dig
19. Last Temptation
20. Changes
21. ……………….
22. ………………. [/color]

http://img529.imageshack.us/img529/7286/datifile.png


General
Complete name : House.S07E20.HDTV.XviD.Eng-Sub Ita-[IDN_CREW].avi
Format : AVI
Format/Info : Audio Video Interleave
File size : 350 MiB
Duration : 43mn 9s
Overall bit rate : 1 133 Kbps
Writing application : transcode-1.0.6

Video
Format : MPEG-4 Visual
Format profile : Streaming [email protected]
Format settings, BVOP : Yes
Format settings, QPel : No
Format settings, GMC : No warppoints
Format settings, Matrix : Default
Muxing mode : Packed bitstream
Codec ID : XVID
Codec ID/Hint : XviD
Duration : 43mn 9s
Bit rate : 946 Kbps
Width : 624 pixels
Height : 352 pixels
Display aspect ratio : 16/9
Frame rate : 23.976 fps
Resolution : 24 bits
Colorimetry : 4:2:0
Scan type : Progressive
Bits/(Pixel*Frame) : 0.180
Stream size : 292 MiB (84%)
Writing library : XviD 63

Audio
Format : MPEG Audio
Format version : Version 1
Format profile : Layer 3
Codec ID : 55
Codec ID/Hint : MP3
Duration : 43mn 9s
Bit rate mode : Variable
Bit rate : 174 Kbps
Nominal bit rate : 168 Kbps
Channel(s) : 2 channels
Sampling rate : 48.0 KHz
Resolution : 16 bits
Stream size : 53.8 MiB (15%)
Alignment : Aligned on interleaves
Interleave, duration : 24 ms (0.58 video frame)
Writing library : LAME3.90.
Encoding settings : ABR



Ringraziamenti: A Subsfatctory.it per i sottotitoli

Related torrents

Torrent NameAddedSizeSeedLeechHealth
Verified torrent
1 Year+ - in TV shows350.76 MB110
1 Year+ - in TV shows349.66 MB00
1 Year+ - in TV shows349.42 MB14
1 Year+ - in TV shows425.68 MB02
1 Year+ - in TV shows340 MB00

Comments (0 Comments)




Please login or create a FREE account to post comments

Latest Searches

| Olivia Austin | panzer 2012 | House of Sand and Fog 2003 | MomPov Erin Single California Mom Does First E 315 404p 27 05 2015 | disco retro coctail | Sweet Child O Mine Guns NRoses | Vol 3 the life of s Carter | William Hs Soapy Wet Tits | LetsTryAnal Brittany Shae Pop Stars Anal Footage NEW MOFOS July 05 2015 | return of the the mack |