Quick Browse
Movies
TV shows
Music
Games
Applications
Anime
Other
Facebook
Advertising

Friends
Torrent Download
Movie4u
1337x.to
Torrent Downloads




House S07E21 HDTV XviD Eng-Sub Ita-[IDN CREW]


    Seeders : 1      Leechers : 4
Hash :D87E13E09B071BA708D68561F396F521A5419E1C
Added :1 Year+ by manny02Verified torrent uploader in TV shows
Size :349.42 MB
Stream :WATCH ONLINE @ Movie4u


House S07E21 HDTV XviD Eng-Sub Ita-[IDN CREW]
Free and Fast Download with Usenet 300GB+ free







Trackers List

Tracker NameLast CheckStatusSeedersLeechers




Torrent File Content (3 files)


House.S07E21.HDTV.XviD.Eng-Sub Ita-[IDN_CREW]
     House.S07E21.HDTV.XviD.Eng-Sub Ita-[IDN_CREW].avi -
349.37 MB

     House.S07E21.HDTV.XviD.Eng-Sub Ita-[IDN_CREW].srt -
50.63 KB

     IDN_CREW Leggimi.txt -
294 bytes



Description



[color=lightskyblue]House - Settima Staggione - HDTVRip Eng Sub Ita[/color]

http://img824.imageshack.us/img824/4576/bbe1c2d805badf6c2e171b6.jpg


http://img514.imageshack.us/img514/1502/inforelease.png


[color=black]Nazionalità: [/color][color=teal]U.S.A.[/color]
[color=black]Genere: [/color] [color=teal] medical drama[/color]
[color=black]Stagione: [/color] [color=teal]7[/color]
[color=black]Episodi: [/color] [color=teal]23[/color]
[color=black]Durata: [/color] [color=teal]43 minuti ad episodio[/color]
[color=black]Lingua: [/color] [color=teal]Inglese[/color]
[color=black]Creato da: [/color] [color=teal] David Shore[/color]
[color=black]Distribuzione: [/color] [color=teal]Heel & Toe Productions, Bad Hat Harry Productions e NBC Universal Television[/color]

Interpreti e Personaggi

http://img442.imageshack.us/img442/7250/casta.jpg


[color=black]Hugh Laurie:[/color] [color=teal]Gregory House[/color]
[color=black]Lisa Edelstein: [/color] [color=teal]Lisa Cuddy[/color]
[color=black]Robert Sean Leonard: [/color] [color=teal]James Wilson[/color]
[color=black]Omar Epps: [/color] [color=teal]Eric Foreman[/color]
[color=black]Jesse Spencer: [/color] [color=teal]Robert Chase[/color]
[color=black]Peter Jacobson: [/color] [color=teal]Chris Taub [/color]
[color=black]Olivia Wilde: [/color] [color=teal]Remy "Tredici" Hadley[/color]

[color=black]Inoltre prossimamente in lista nuovi nomi di Guest Star che prenderanno parte ad alcuni episodi[/color]

http://img153.imageshack.us/img153/7608/tramao.png


http://img255.imageshack.us/img255/9728/house7poster2.jpg


[color=teal] Con l’arrivo dell’autunno stanno riprendendo tutte le serie tv più seguite dai telespettatori, una tra queste è quella del Dr. House. Nei giorni scorsi è giunta la voce della morte del doppiatore italiano proprio del protagonista, l’irriverente House che con la sua ironia ci ha tenuto compagnia in questi anni.

Sicuramente tra i medical drama finora prodotti e trasmessi, il posto d’onore nella hit parade spetta al Dr House.
Un serial che ha saputo sapientemente mescolare i cardini del genere con la costruzione davvero geniale di un personaggio.
Dr. House - Medical Division (House, M.D.) è una serie televisiva statunitense ideata da David Shore e Paul Attanasio e trasmessa da Fox a partire dal 2004; l'emittente televisiva ha ufficialmente accreditato Shore come creatore. La serie è incentrata attorno al ruolo del dottor Gregory House, un medico poco convenzionale ma dotato di grande capacità ed esperienza, a capo di una squadra di medicina diagnostica presso il fittizio ospedale universitario Princeton-Plainsboro Teaching Hospital, nel New Jersey.
Finora abbiamo avuto il piacere di vedere ben sei stagioni di Dr House e il grande ritorno con la settima stagione di Dr. House. Dopo avere visto un emozionante finale nella scorsa stagione in cui House e Cuddy dichiaravano apertamente i sentimenti che nutrivano l’uno per l’altro, li rivediamo ad esplorare tutte le emozioni che provano e i loro progetti per far funzionare la loro relazione. In definitiva la settima sarà la stagione della febbre "Huddy” (Il nome Huddy non è quello di un nuovo personaggio, bensì deriva dalla fusione tra House e Cuddy), quindi una stagione dell'amore per il Dr.House che, tra una malattia rara ed un'altra, dovrà anche condurre una vita sentimentale.
Il solo pensiero fa sorridere e, soprattutto, fa venire la curiosità su come gli autori gestiranno al cosa, la Cuddy ed il Dr.House non sono propriamente due personaggi da intreccio sentimentale.[/color]

EPISODI

[color=black]1. Now What?
2. Selfish
3. Unwritten
4. Massage Therapy
5. Unplanned Parenthood
6. Office Politics
7. A Pox on Our House
8. Small Sacrifices
9. Larger Than Life
10.Carrot or Stick
11. Family Practice
12. You Must Remember This
13. Two Stories
14. Recession Proof
15. Bombshells
16. Out of the Chute
17. Fall from Grace
18. The Dig
19. Last Temptation
20. Changes
21. The Fix
22. ………………. [/color]

http://img529.imageshack.us/img529/7286/datifile.png


General
Complete name : House.S07E21.HDTV.XviD.Eng-Sub Ita-[IDN_CREW].avi
Format : AVI
Format/Info : Audio Video Interleave
File size : 349 MiB
Duration : 43mn 7s
Overall bit rate : 1 133 Kbps
Writing application : VirtualDubMod 1.5.10.2 (build 2540/release)
Writing library : VirtualDubMod build 2540/release

Video
Format : MPEG-4 Visual
Format profile : Streaming [email protected]
Format settings, BVOP : Yes
Format settings, QPel : No
Format settings, GMC : No warppoints
Format settings, Matrix : Default
Codec ID : XVID
Codec ID/Hint : XviD
Duration : 43mn 7s
Bit rate : 988 Kbps
Width : 624 pixels
Height : 352 pixels
Display aspect ratio : 16/9
Frame rate : 23.976 fps
Resolution : 24 bits
Colorimetry : 4:2:0
Scan type : Progressive
Bits/(Pixel*Frame) : 0.188
Stream size : 305 MiB (87%)
Writing library : XviD 50

Audio
Format : MPEG Audio
Format version : Version 1
Format profile : Layer 3
Codec ID : 55
Codec ID/Hint : MP3
Duration : 43mn 7s
Bit rate mode : Variable
Bit rate : 132 Kbps
Nominal bit rate : 128 Kbps
Channel(s) : 2 channels
Sampling rate : 48.0 KHz
Resolution : 16 bits
Stream size : 40.6 MiB (12%)
Alignment : Aligned on interleaves
Interleave, duration : 24 ms (0.58 video frame)
Interleave, preload duration : 446 ms
Writing library : LAME3.90.
Encoding settings : ABR

Ringraziamenti: A Subsfatctory.it per i sottotitoli

Related torrents

Torrent NameAddedSizeSeedLeechHealth
Verified torrent
1 Year+ - in TV shows350.76 MB110
1 Year+ - in TV shows349.66 MB00
1 Year+ - in TV shows349.84 MB13
1 Year+ - in TV shows425.68 MB02
1 Year+ - in TV shows340 MB00

Comments (0 Comments)




Please login or create a FREE account to post comments

Latest Searches

| DDP YOGA Videos Extreme Audio and Tons of | 5 seconds of summer dont t stop | Aftermath S01E02 720p HDTV x264 AVS eztv mkv | Shane s World 24 Spring Break | Met Art 15 12 27 Melony Jolatu 1080p MP4 KTR rarbg | merry Christmas santa | SCANDAL SHORT CLIPS | vinyl flac fleetwood | Angel Smalls a My Little Angel | Quiet Ones the 2014 |