Quick Browse
Movies
TV shows
Music
Games
Applications
Anime
Other
Facebook
Friends
Torrent Download
Free Movies
1337x.to
Torrent Downloads

Verified torrent House S08E04 HDTV XviD-ENG+Sub_Ita-[IDN_CREW]


    Seeders : 0      Leechers : 0
Hash :C07CBA52122B9202FF6A7B3CF01853A1E87C6CC0
Added :1 Year+ by manny02Verified torrent uploader in TV shows
Size :350 MB
Stream :Watch Full Movies Online @ Movie4u
Share :


House S08E04 HDTV XviD-ENG+Sub_Ita-[IDN_CREW]
Anonymous and Direct Download 300GB+ free







Warning! Do not Download Torrents Without a VPN!
Your IP Address is .   And Location is
Your Internet Provider and Government can track your torrent Activity!  Hide your IP ADDRESS with a VPN!
We Strongly Recommend Using SpyOFF Torrent VPN to Anonymize your Torrenting. It's FREE For 15 Days!

Note :

Please Update (Trackers Info) Before Downloading Torrents to See Updated Seeders And Leechers for Batter Download Speed.

Trackers List

Tracker NameLast CheckStatusSeedersLeechers
http://explodie.org:6969/announce8 days agosuccess00
udp://tracker.leechers-paradise.org:6969/announce8 days agosuccess00
http://tracker.tfile.me/announce8 days agosuccess00
udp://tracker.coppersurfer.tk:6969/announce8 days agosuccess00
udp://tracker.coppersurfer.tk:808 days agosuccess00
http://tracker.trackerfix.com/announce8 days agosuccess00
udp://tracker.trackerfix.com:80/announce8 days agosuccess00
udp://9.rarbg.to:2710/announce8 days agosuccess00
udp://p4p.arenabg.com:13378 days agosuccess00
udp://9.rarbg.me:2710/announce8 days agosuccess00




Torrent File Content (2 files)


House.S08E04.HDTV.XviD-ENG+Sub_Ita-[IDN_CREW]
     House.S08E04.HDTV.XviD-ENG+Sub_Ita-[IDN_CREW].avi -
350 MB

     IDN_CREW Leggimi.txt -
294 bytes



Description



http://img31.imageshack.us/img31/2633/drhouse8nuovoposter500.jpg

[color=orange]House M.D. 8° Season [/color]
HDTv Eng mp3 Sub Ita


http://img514.imageshack.us/img514/1502/inforelease.png


[color=orange]Titolo:[/color] House M.D.
[color=orange]Anno: [/color]2011
[color=orange]Nazionalità: [/color]USA
[color=orange]Genere:[/color]Medical Drama
[color=orange]Lingua:[/color] Inglese
[color=orange]Stagione:[/color] 8
[color=orange]Episodi:[/color] 22
[color=orange]Durata Episodio:[/color] 45 min ca (episodio)
[color=orange]Ideatore:[/color] David Shore
[color=orange]Produzione:[/color] Heel & Toe Productions, Bad Hat Harry Productions e NBC Universal Television
[color=orange]Distribuzione (USA):[/color] FOX


http://img685.imageshack.us/img685/5835/casta.png


http://img846.imageshack.us/img846/7052/house8castfull.jpg



Attori ed interpreti principali
Hugh Laurie (Dott. Gregory House)
Omar Epps (Dott. Eric Foreman)
Robert Sean Leonard (Dott. James Wilson)
Jesse Spencer (Robert Chase)
Peter Jacobson (Chris Taub)
Odette Annable (Jessica Adams)
Charlyne Yi (Dott. Chi Park)

http://img153.imageshack.us/img153/7608/tramao.png


http://img26.imageshack.us/img26/5074/40abb43ca2b88b210a4804e.jpg


Un medico geniale e controcorrente come House non poteva che adottare un’estrema terapia d’urto per liberarsi della malattia più grave che potesse capitare ad un cinico come lui: l’amore. Così è piombato in casa della dr.ssa Cuddy sfondando una parete con la sua auto ed ha lasciato il paese per tre mesi. Ora lo ritroviamo nel posto che gli spetta: il carcere.
http://img864.imageshack.us/img864/7976/episodi.png


1 Twenty Vicodin
2 Transplant
3 Charity Case
4 Risky Business
5 The Confession
6
7
8
…..

http://img190.imageshack.us/img190/7663/recension.png


La stagione 8 di House inizia ufficialmente il 3 ottobre con la messa in onda, negli USA, della premiere della nuova serie (forse l’ultima). In molti, tuttavia, hanno potuto già vedere un’anteprima dell’episodio, il cosiddetto preair, in circolazione già da due settimane.
É un inizio di stagione che ricorda quello della sesta serie, in cui il protagonista era invece rinchiuso in manicomio.
Tutte le serie tv, nell’arco di sette stagioni, vivono di alti e bassi. La stanchezza è fisiologica. Eppure House MD continua a mantenersi su ottimi livelli grazie soprattutto alla simpatica antipatia del personaggio, all’interpretazione sempre convincente di Laurie e ad uno staff di sceneggiatori a cui le idee non mancano. Di certo il miglior medical drama di sempre.
Ci sarebbe molto di più da dire ma non voglio svelare le tantissime novità di questa stagione che speriamo si ripeta!

http://img529.imageshack.us/img529/7286/datifile.png



Programma usato: AVIRecomp

Sottotitoli impressi a video (ringrazio ITASA per lo splendido lavoro!!)

General
Complete name : House.S08E04.HDTV.XviD-ENG+Sub_Ita-[IDN_CREW].avi
Format : AVI
Format/Info : Audio Video Interleave
File size : 350 MiB
Duration : 43mn 49s
Overall bit rate : 1 116 Kbps
Writing application : VirtualDubMod 1.5.10.2 (build 2542/release)
Writing library : VirtualDubMod build 2542/release

Video
Format : MPEG-4 Visual
Format profile : Streaming [email protected]
Format settings, BVOP : Yes
Format settings, QPel : No
Format settings, GMC : No warppoints
Format settings, Matrix : Default
Muxing mode : Packed bitstream
Codec ID : XVID
Codec ID/Hint : XviD
Duration : 43mn 49s
Bit rate : 949 Kbps
Width : 624 pixels
Height : 352 pixels
Display aspect ratio : 16/9
Frame rate : 23.976 fps
Resolution : 24 bits
Colorimetry : 4:2:0
Scan type : Progressive
Bits/(Pixel*Frame) : 0.180
Stream size : 298 MiB (85%)
Writing library : XviD 62

Audio
Format : MPEG Audio
Format version : Version 1
Format profile : Layer 3
Codec ID : 55
Codec ID/Hint : MP3
Duration : 43mn 49s
Bit rate mode : Variable
Bit rate : 154 Kbps
Channel(s) : 2 channels
Sampling rate : 48.0 KHz
Resolution : 16 bits
Stream size : 48.4 MiB (14%)
Alignment : Aligned on interleaves
Interleave, duration : 24 ms (0.58 video frame)
Interleave, preload duration : 497 ms



http://img20.imageshack.us/img20/4974/screenshotsph.png


http://img72.imageshack.us/img72/2496/thumbs20111012221024.jpg

Related torrents

Torrent NameAddedSizeSeedLeechHealth
Verified torrent
1 Year+ - in TV shows350.76 MB00
1 Year+ - in TV shows349.66 MB00
1 Year+ - in TV shows349.42 MB14
1 Year+ - in TV shows349.84 MB13
1 Year+ - in TV shows425.68 MB02
1 Year+ - in TV shows340 MB00

Comments (0 Comments)




Please login or create a FREE account to post comments

Latest Searches

| Lost n Passion | rub you right way remix | eed for Speed Most Wanted 2 PC | james corden may i have your | The Devils 720p | beat beat michael jackson remix | kenny burrell bluesin around | how to code in minecraft jim christian tim danton 1781065195 shailab | Mercedes Carrera Taylor Sands | mp4 movies in full |