Quick Browse
Movies
TV shows
Music
Games
Applications
Anime
Other

Advertising

Friends
Torrents.me
Torrent Download
Free Movies
1337x
RARBG
Torrent Downloads

Verified torrent How High [2001] [DVD] [AC3] [Hannspree]


    Seeders : 1      Leechers : 4

Hash :D41EB2D64E30679E8665AC91BB76168C09F3FAF2
Added :1 Year+ by HannspreeVerified torrent uploader in Movies
Size :1.82 GB
Stream :Watch Online Full Movie @ Movie4u
Share :


How High [2001] [DVD] [AC3] [Hannspree]
Download Direct And Anonymously







Warning! Do not Download Torrents Without a VPN!
Your IP Address is .   And Location is
Your Internet Provider and Government can track your torrent Activity!  Hide your IP ADDRESS with a VPN!
We Strongly Recommend Using SpyOFF Torrent VPN to Anonymize your Torrenting. It's FREE for 15 Days!

Note :

Please Update (Trackers Info) Before Downloading Torrents to See Updated Seeders And Leechers for Batter Download Speed.

Trackers List

Tracker NameLast CheckStatusSeedersLeechers




Torrent File Content (11 files)


How High
    How High [DVD]
          VIDEO_TS/VIDEO_TS.BUP -
12 KB

          VIDEO_TS/VIDEO_TS.IFO -
12 KB

          VIDEO_TS/VIDEO_TS.VOB -
60 KB

          VIDEO_TS/VTS_01_0.BUP -
66 KB

          VIDEO_TS/VTS_01_0.IFO -
66 KB

          VIDEO_TS/VTS_01_0.VOB -
60 KB

          VIDEO_TS/VTS_01_1.VOB -
1023.97 MB

          VIDEO_TS/VTS_01_2.VOB -
836.22 MB

          How High [DVD] Covers/How High - Cover.jpg -
58 KB

          How High [DVD] Covers/How High - Disc.jpg -
22.05 KB

     How High [DVD].NFO -
6.53 KB



Description



=========================================================================================================================
[ Another free and high quality, ready to burn DVD - I will be adding new torrents on a daily basis - Remember to seed ]
=========================================================================================================================
MOVIE TITLE: How High
LANGUAGE: English
MOVIE SUBS: No - (subtitles if/when required)
BURN TESTED: Yes
FORMAT: Pal
GENRE: Comedy
RUNTIME: 93 Minutes
YEAR: 2001
IMDB LINK: http://www.imdb.com/title/tt0278488/
=========================================================================================================================
GENERAL MOVIE DESC:

Two guys by the name of Silas and Jamal decided to one day smoke something magical, which eventually helps them to ace their college entrance exam. This eventually lands them in Harvard, where they're surrounded by the world of Ivy Leaguers. Although their new lifestyle is much different from back home, they kept on having fun until their supernatural smoke runs out. Now, they are on their own and they have to rely on each other to survive.
=========================================================================================================================
GENERAL MOVIE SPECS:

GENERAL:
Complete name : How High
Format : MPEG-PS
File size : 1.81 GB
Duration : 93 Minutes
Overall bit rate : 2 929 Kbps

VIDEO:
ID : 224 (0xE0)
Format : MPEG Video
Format version : Version 2
Format profile : [email protected]
Format settings, BVOP : Yes
Format settings, Matrix : Default
Duration : 93 Minutes
Bit rate mode : Variable
Bit rate : 2 679 Kbps
Nominal bit rate : 9 608 Kbps
Width : 720 pixels
Height : 576 pixels
Display aspect ratio : 16:9
Frame rate : 24.000 fps
Standard : PAL
Color space : YUV
Chroma subsampling : 4:2:0
Bit depth : 8 bits
Scan type : Progressive
Scan order : 2:2:2:2:2:2:2:2:2:2:2:3 Pulldown
Bits/(Pixel*Frame) : 0.269
Stream size : 936 MiB (91%)

AUDIO:
ID : 128 (0x80)
Format : AC-3
Format/Info : Audio Coding 3
Mode extension : CM (complete main)
Duration : 93 Minutes
Bit rate mode : Constant
Bit rate : 192 Kbps
Channel(s) : 2 channels
Channel positions : Front: L R
Sampling rate : 48.0 KHz
Stream size : 67.1 MiB (7%)
=========================================================================================================================

Related torrents

Torrent NameAddedSizeSeedLeechHealth
1 Year+ - in Movies1.23 GB11
1 Year+ - in Movies699.73 MB00
3 months ago - in Other2.52 GB00
5 months ago - in Other970.46 MB00
1 Year+ - in Movies3.57 GB00

Note :

Feel free to post any comments about this torrent, including links to Subtitle, samples, screenshots, or any other relevant information. Please Dont Download anything from Comments, And Dont Post Links to Streaming Sites like Fmovies, Xmovies8, 123Movies, GoMovies, CMovieshd, Solarmovie, Watchfree, Putlockers, GoStream, m4ufree etc.

Comments (0 Comments)




Please login or create a FREE account to post comments

Latest Searches

| chessie prurient | haenge titten | rocks live | Luiza Surprise | Seth 21 11 2017 | the force be with me | better saul phun | t racks 5 one | make you miss me acoustic | Jake and the Never Land Pirates 4 |