Quick Browse
Movies
TV shows
Music
Games
Applications
Anime
Other
Facebook
Advertising

Friends
Torrent Download
Movie4u
1337x.to
Torrent Downloads




How I Spent The End Of The World - Romanian Film - 2006 - TVRip - WS - XviD-Greekadiko.biz Release - English Subtitles


    Seeders : 1      Leechers : 1

Trackers List

Tracker NameLast CheckStatusSeedersLeechers




Torrent File Content (6 files)


How I Spent The End Of The World
     How I Spent The End Of The World.avi -
739.08 MB

     poster.png -
289.25 KB

     How I Spent The End Of The World_3.jpg -
39.77 KB

     How I Spent The End Of The World_2.jpg -
24.57 KB

     How I Spent The End Of The World.jpg -
19.75 KB

     How I Spent The End Of The World_1.jpg -
19.69 KB



Description



General
Complete name                    : How I Spent The End Of The World.avi
Format                           : AVI
Format/Info                      : Audio Video Interleave
File size                        : 739 MiB
Duration                         : 1h 40mn
Overall bit rate                 : 1 032 Kbps
Writing application              : VirtualDubMod 1.5.4.1 (build 2178/release)
Writing library                  : VirtualDubMod build 2178/release

Video
ID                               : 0
Format                           : MPEG-4 Visual
Format profile                   : Streaming [email protected]
Format settings, BVOP            : Yes
Format settings, QPel            : No
Format settings, GMC             : No warppoints
Format settings, Matrix          : Default (H.263)
Muxing mode                      : Packed bitstream
Codec ID                         : XVID
Codec ID/Hint                    : XviD
Duration                         : 1h 40mn
Bit rate                         : 895 Kbps
Width                            : 720 pixels
Height                           : 400 pixels
Display aspect ratio             : 16/9
Frame rate                       : 29.970 fps
Resolution                       : 24 bits
Colorimetry                      : 4:2:0
Scan type                        : Progressive
Bits/(Pixel*Frame)               : 0.104
Stream size                      : 641 MiB (87%)
Writing library                  : XviD 1.2.1 (UTC 2008-12-04)

Audio
ID                               : 1
Format                           : MPEG Audio
Format version                   : Version 1
Format profile                   : Layer 3
Codec ID                         : 55
Codec ID/Hint                    : MP3
Duration                         : 1h 40mn
Bit rate mode                    : Constant
Bit rate                         : 128 Kbps
Channel(s)                       : 2 channels
Sampling rate                    : 48.0 KHz
Resolution                       : 16 bits
Stream size                      : 91.7 MiB (12%)
Alignment                        : Aligned on interleaves
Interleave, duration             : 67 ms (2.00 video frames)
Interleave, preload duration     : 504 ms
Writing library                  : LAMELAME_MAJOR_VERSION





Screenshots:

http://i49.tinypic.com/1rr89j.jpg
http://i49.tinypic.com/o06j34.jpg
http://i45.tinypic.com/2145bir.jpg
http://i49.tinypic.com/334222r.jpg

Related torrents

Torrent NameAddedSizeSeedLeechHealth
1 Year+ - in Movies699.68 MB21
1 Year+ - in Movies710.01 MB00
1 Year+ - in Movies676.86 MB10
1 Year+ - in Movies707.3 MB00
1 Year+ - in Movies642.17 MB10

Comments (0 Comments)




Please login or create a FREE account to post comments

Latest Searches

| window full | Antivirus 2017 with key | Big Fish Audio Street Percussion NYC MULTiFORMAT | Ahava Colombianit 2004 | mature big body | PTE Patch 2 0 | PTE Patch 0 | Lyra Law Violet Starr Sharing the Siblings Part 1 Brazzers | Planet Earth II 2016 avi | new sensations the young ones 2016 |