Quick Browse
Movies
TV shows
Music
Games
Applications
Anime
Other
Facebook
Advertising

Friends
Torrent Download
Movie4u
1337x.to
Torrent Downloads




Verified torrent How To Stop Being A Loser 2011 DVDRip 5.1 AC3 XViD-26K


    Seeders : 1      Leechers : 0
Hash :6BE3B3C24BE35BC8D17033EF5A9356DCE59BDD91
Added :1 Year+ by memory100Verified torrent uploader in Movies
Size :1.45 GB
Stream :WATCH ONLINE @ Movie4u


How To Stop Being A Loser 2011 DVDRip 5.1 AC3 XViD-26K
Free and Fast Download with Usenet 300GB+ free







Trackers List

Tracker NameLast CheckStatusSeedersLeechers




Torrent File Content (8 files)


How To Stop Being A Loser 2011 DvDRiP 5.1 AC3 XViD-26K
     HDSceneRG.txt -
115 bytes

     How To Stop Being A Loser 2011 DvDRiP 5.1 AC3 XViD-26K.avi -
1.42 GB

     How To Stop Being A Loser 2011 DvDRiP 5.1 AC3 XViD-26K.nfo -
3.22 KB

     Torrent downloaded from Demonoid.me.txt -
46 bytes

     Torrent downloaded from rarbg.com.txt.txt -
0 bytes

     att-networks.com.txt -
39 bytes

     sample.avi -
33.74 MB

     sceneunderground.org.txt -
77 bytes



Description



http://i.imgur.com/gCvYB.jpg

[code]
How To Stop Being A Loser 2011 DvDRiP 5.1 AC3 XViD-26K

Imdb:
http://www.imdb.com/title/tt1727506/

Plot:
James is useless with women, but his luck changes under the tutelage of pick-up artist, Ampersand. As James learns the art of seduction he begins to wonder about Ampersand's intentions and questions what would truly make him happy in life.

Sources:
DVDR-THNXS BRO!!!

Notes:
Enjoy!!!

Greetz:
Xtreme Encode|FYA|ILLUMANTI|CM8|RX|VISION|HDSCENE|NIGHTMAREZ|xTriLL|DTRG|CRYS|REMIXHD|BIDA|RX|REFILL|INSPiRAL|SIC|ZOMBIESZ|HOPE|Anonymous|GooN
To all the people who have helped me :P you know who you are

Anything to offer email us @: [email protected]

Video
ID : 0
Format : MPEG-4 Visual
Format profile : Advanced [email protected]
Format settings, BVOP : 1
Format settings, QPel : No
Format settings, GMC : No warppoints
Format settings, Matrix : Default (H.263)
Codec ID : XVID
Codec ID/Hint : XviD
Duration : 1h 44mn
Bit rate : 972 Kbps
Width : 720 pixels
Height : 304 pixels
Display aspect ratio : 2.35:1
Frame rate : 25.000 fps
Color space : YUV
Chroma subsampling : 4:2:0
Bit depth : 8 bits
Scan type : Progressive
Compression mode : Lossy
Bits/(Pixel*Frame) : 0.178
Stream size : 728 MiB (75%)
Writing library : XviD 1.2.1 (UTC 2008-12-04)

Audio
ID : 1
Format : AC-3
Format/Info : Audio Coding 3
Mode extension : CM (complete main)
Codec ID : 2000
Duration : 1h 44mn
Bit rate mode : Constant
Bit rate : 320 Kbps
Channel(s) : 6 channels
Channel positions : Front: L C R, Side: L R, LFE
Sampling rate : 44.1 KHz
Bit depth : 16 bits
Compression mode : Lossy
Stream size : 240 MiB (25%)
Alignment : Aligned on interleaves
Interleave, duration : 70 ms (1.74 video frames)
Interleave, preload duration : 208 ms
Title : Title 01

[/code]
Screens:
http://i.imgur.com/NFjIY.png

http://i.imgur.com/uitJq.png

http://i.imgur.com/akyfM.png

http://i.imgur.com/8ywCM.png

http://i.imgur.com/4FREH.png

http://i.imgur.com/uyrU1.png

http://i.imgur.com/TkWr3.png


http://img851.imageshack.us/img851/5503/26ks.jpg

Thank you smallz for banner!

Related torrents

Torrent NameAddedSizeSeedLeechHealth
1 Year+ - in Movies1.36 GB00
1 Year+ - in Movies2.2 GB114
1 Year+ - in Movies1.11 GB00
1 Year+ - in Movies1.9 GB31
Verified torrent
1 Year+ - in Movies1.38 GB00

Comments (0 Comments)




Please login or create a FREE account to post comments

Latest Searches

| bleeding stereo | Microsoft Windows 8 1 Pro WMC x86x64 Multilanguage | Kristin Scott Young | friday rebecca black official music video wmv | delinquent habits here come the horns | burlesque express christina aguilera | Jole and the Red Queen | SantaLatina Kathy Violeta | the bridges of madison county ENG | Colony 2016 S01E01 1080p WEB DL NL Subs |