Quick Browse
Movies
TV shows
Music
Games
Applications
Anime
Other
Facebook
Friends
Torrent Download
Free Movies
1337x.to
Torrent Downloads

Verified torrent How To Train Your Dragon (2010) DVDRip XviD (Encoded) (Conster1380)


    Seeders : 0      Leechers : 7
Hash :4DDA03ADA3D5C94539D84CB399EA064CEC90C57F
Added :1 Year+ by Conster1380Verified torrent uploader in Movies
Size :695.97 MB
Stream :Watch Full Movies Online @ Movie4u
Share :








Warning! Do not Download Torrents Without a VPN!
Your IP Address is .   And Location is
Your Internet Provider and Government can track your torrent Activity!  Hide your IP ADDRESS with a VPN!
We Strongly Recommend Using SpyOFF Torrent VPN to Anonymize your Torrenting. It's FREE For 15 Days!

Note :

Please Update (Trackers Info) Before Downloading Torrents to See Updated Seeders And Leechers for Batter Download Speed.

Trackers List

Tracker NameLast CheckStatusSeedersLeechers




Torrent File Content (5 files)


How To Train Your Dragon (2010) DVDRip XviD (Encode) (Conster1380)
     How To Train Your Dragon (2010) DVDRip XviD (Encode) (Conster1380).avi -
695.97 MB

     Torrent Downloaded From 1337x.org.txt -
0 bytes

     Torrent downloaded from Demonoid.com.txt -
47 bytes

     Torrent Downloaded From Kickasstorrents.com.txt -
43 bytes

     Torrent Downloaded from Limetorrents.com.txt -
46 bytes



Description



http://blueraycenter.com/wp-content/uploads/2010/07/HowtotrainyourdragonBD.jpg


Video
ID : 0
Format : MPEG-4 Visual
Format profile : Advanced [email protected]
Format settings, BVOP : Yes
Format settings, QPel : No
Format settings, GMC : No warppoints
Format settings, Matrix : Default (MPEG)
Muxing mode : Packed bitstream
Codec ID : XVID
Codec ID/Hint : XviD
Duration : 1h 37mn
Bit rate : 856 Kbps
Width : 640 pixels
Height : 272 pixels
Display aspect ratio : 2.35:1
Frame rate : 23.976 fps
Color space : YUV
Chroma subsampling : 4:2:0
Bit depth : 8 bits
Scan type : Progressive
Bits/(Pixel*Frame) : 0.205
Stream size : 599 MiB (86%)
Writing library : XviD 1.2.1 (UTC 2008-12-04)

Audio
ID : 1
Format : MPEG Audio
Format version : Version 1
Format profile : Layer 3
Mode : Joint stereo
Mode extension : MS Stereo
Codec ID : 55
Codec ID/Hint : MP3
Duration : 1h 37mn
Bit rate mode : Variable
Bit rate : 128 Kbps
Channel(s) : 2 channels
Sampling rate : 48.0 KHz
Stream size : 88.2 MiB (13%)
Alignment : Aligned on interleaves
Interleave, duration : 24 ms (0.58 video frame)
Interleave, preload duration : 146 ms
Writing library : LAME3.90.
Encoding settings : -m j -V 4 -q 2 -lowpass 17.6 --abr 128

Source: A Good Friend! 8)

;D Screenshots:

http://i53.tinypic.com/a1264y.png


http://i55.tinypic.com/a2f255.png


http://i53.tinypic.com/xnc3o2.png


:D Alternative Screenshots:
8) [url]http://i53.tinypic.com/a1264y.png[/url]
8) [url]http://i55.tinypic.com/a2f255.png[/url]
8) [url]http://i53.tinypic.com/xnc3o2.png[/url]

:D Uploader's Comments:
Here we are with my second ever torrent on demonoid! :o Anyway, The quality was already ok when my trusted source gave me this, I messed slightly with the audio and sound, Wasn't going to release this to be honest when the BRRips came out, There are already a few DVDRips out but i think this is the first encoded one, Anyway if you haven't already got this here it is! Enjoy! :P

;D Greetz To: SAFCuk009 + Fabreezy + Noir + IMAGiNE + PrisM + aAF + KiNGDOM + FXG + EVERYBODY THAT SERVES THE TORRENT COMMUNITY!! ;D

Related torrents

Torrent NameAddedSizeSeedLeechHealth
2 months ago - in Movies2.41 GB911
1 Year+ - in Movies785.06 MB1,9812,319
4 months ago - in Anime660.29 MB00
Verified torrent
1 Year+ - in Movies1.15 GB142
Verified torrent
1 Year+ - in Movies5.74 GB2227

Comments (0 Comments)




Please login or create a FREE account to post comments

Latest Searches

| gonzo anderson | Renee karmin | 2D Stopping | remy ghetto | Together Haley Reed and Jillian Janson Make | 192 1080p | ALI PROJECT A | rockie fresh u i | Dandupalyam 2 T | Digitalplayground 2010 |