Quick Browse
Movies
TV shows
Music
Games
Applications
Anime
Other
Facebook
Advertising

Friends
Torrent Download
Movie4u
1337x.to
Torrent Downloads




Verified torrent How To Train Your Dragon 2-D HDTV 720p RiP READNFO XViD - IMAGiNE - {XtremeTorrents}


    Seeders : 321      Leechers : 95

Trackers List

Tracker NameLast CheckStatusSeedersLeechers




Torrent File Content (7 files)


How To Train Your Dragon 2-D HDTV 720p RiP READNFO XViD - IMAGiNE
     How To Train Your Dragon 2-D HDTV 720p RiP READNFO XViD - IMAGiNE.NFO -
5.61 KB

     How To Train Your Dragon 2-D HDTV 720p RiP READNFO XViD - IMAGiNE.avi -
1.36 GB

     How To Train Your Dragon 2-D HDTV 720p RiP READNFO XViD - SAMPLE.avi -
14.35 MB

     NW RG.nfo -
12.96 KB

     NW RG.txt -
127 bytes

     Torrent downloaded from Demonoid.com.txt -
47 bytes

     bsbt.nfo -
5.75 KB



Description



************************************************************How To Train Your Dragon 2-D HDTV 720p RiP READNFO XViD -
IMAGiNE
********************************************************************************************************************

Ripper ...........: IMAGiNE IMDB Rating.......:8.3/10
Video Codec.......: XVID Release Date......:19/07/10
Audio Codec.......:MP3 Theatre Date......:31/03/10
Audio Bitrate.....:128 Runtime.......:1h 30mn
Subtitles.........:NIL Language..........:ENGLISH
Resolution...... 1280 x 544 IMDb URL..........:http://www.imdb.com/title/tt0892769/


DETAILS:

Video
ID : 0
Format : MPEG-4 Visual
Format profile : Advanced [email protected]
Format settings, BVOP : Yes
Format settings, QPel : No
Format settings, GMC : No warppoints
Format settings, Matrix : Default (MPEG)
Muxing mode : Packed bitstream
Codec ID : XVID
Codec ID/Hint : XviD
Duration : 1h 30mn
Bit rate : 2 029 Kbps
Width : 1 280 pixels
Height : 544 pixels
Display aspect ratio : 2.35
Frame rate : 23.976 fps
Resolution : 24 bits
Colorimetry : 4:2:0
Scan type : Progressive
Bits/(Pixel*Frame) : 0.122
Stream size : 1.28 GiB (94%)
Writing library : XviD 1.2.1 (UTC 2008-12-04)

Audio
ID : 1
Format : MPEG Audio
Format version : Version 1
Format profile : Layer 3
Codec ID : 55
Codec ID/Hint : MP3
Duration : 1h 30mn
Bit rate mode : Constant
Bit rate : 128 Kbps
Channel(s) : 2 channels
Sampling rate : 44.1 KHz
Resolution : 16 bits
Stream size : 82.5 MiB (6%)
Alignment : Split accross interleaves
Interleave, duration : 42 ms (1.00 video frame)
Interleave, preload duration : 500 ms


NOTES:

IMAGiNE bringing you another release.....How To Train Your Dragon

Ok where do we start with this one well firstly thanks to the upper / capper on Relizlab for the video.
The audio was our own off our TS.
Now got to be totally honest with you and say we are unsure WHAT this actually is....video wise.The detail on it
looks like a screener,but then now and again you see a border on the left side appear and then disappear and also
on the end credits you can see a pulse on the yellow background.....which neither of then some be one a screener but are
more often or not found on cams.....
Anyway we've tagged it how the source we used was which was a 5.20gig 720p mp4 file so.....

Well work done for this we fixed the AR because it was slightly off and also used a scripted for white balance,sharpeness and resize.
Haven't tweaked the colours or anything else.
The audio was ok but lacked bass so dropped it in goldwave and added some more bass to it,to give it some depth.Once done it was a
case of syncing it,which was a bitch to do .....some major jumps in the audio gaps,ranging from 500 - 11700ms.So we did our best and we've
scrolled through and didn't see any oos parts,but if there is.....hey sorry.

Anyway retail should be out soon but until then,enjoy

Screens:
http://imagine.takagari.com/DRAGON%20720p/vlcsnap-452655.png

http://imagine.takagari.com/DRAGON%20720p/vlcsnap-453113.png

http://imagine.takagari.com/DRAGON%20720p/vlcsnap-453269.png

http://imagine.takagari.com/DRAGON%20720p/vlcsnap-453444.png

Related torrents

Torrent NameAddedSizeSeedLeechHealth
1 Comments
1 Year+ - in Movies1.38 GB00
1 Year+ - in Movies1.38 GB14
Verified torrent
1 Year+ - in Movies1.36 GB183
1 Year+ - in Movies398.88 MB10
1 Year+ - in Movies682.78 MB01

Comments (0 Comments)




Please login or create a FREE account to post comments

Latest Searches

| contraband 2012 swesub | Cum on tits for mature | from the muscle | l miz u | irish rovers christmas songs | poison pills | erotica carmen | steven universe s01e03e04 cheeseburger backpack together breakfast mp4 | deliver us from evil 2014 720p jyk | The Definitive Greatest Hits al green |