Quick Browse
Movies
TV shows
Music
Games
Applications
Anime
Other
Facebook
Advertising

Friends
Torrent Download
Movie4u
1337x.to
Torrent Downloads




Verified torrent Hugo (2011) DVDRip XviD-MAXSPEED


    Seeders : 296      Leechers : 39
Hash :D6E596EB0FE8134A53105AA0CA580B1FD7978772
Added :1 Year+ by piratepediaVerified torrent uploader in Movies
Size :1.31 GB
Stream :WATCH ONLINE @ Movie4u


Hugo (2011) DVDRip XviD-MAXSPEED
Free and Fast Download with Usenet 300GB+ free







Trackers List

Tracker NameLast CheckStatusSeedersLeechers




Torrent File Content (8 files)


Hugo (2011) DVDRip XviD-MAXSPEED
     Hugo (2011) DVDRip XviD-MAXSPEED www.torentz.3xforum.ro.avi -
1.3 GB

     sample.avi -
3.95 MB

     screencaps.jpeg -
720.45 KB

     Hugo (2011) DVDRip XviD-MAXSPEED.nfo -
2.66 KB

     Torrent downloaded from Demonoid.me.txt -
46 bytes

     Torrent downloaded from Extratorrent.com.txt -
40 bytes

     Torrent downloaded from Rarbg.com.txt -
33 bytes

     Torrent downloaded from h33t.com.txt -
32 bytes



Description



http://www.hotimg.com/direct/U7FdzAv.jpg


Screens:

http://www.hotimg.com/direct/duK5Cby.jpg

http://www.hotimg.com/direct/zyMe2Vz.jpg

http://www.hotimg.com/direct/p5BVPPw.jpg

http://www.hotimg.com/direct/rYJqmFM.jpg


Alternative:

[code]http://www.postimg.com/image/61000/photo-60198.jpg
http://www.postimg.com/image/61000/photo-60199.jpg
http://www.postimg.com/image/61000/photo-60200.jpg
http://www.postimg.com/image/61000/photo-60201.jpg[/code]

ScreenCaps:

http://www.postimg.com/61000/photo-60202.jpg


[code]Hugo (2011) DVDRip XviD-MAXSPEED
Format : AVI
Format/Info : Audio Video Interleave
Format profile : OpenDML
File size : 1.30 GiB
Duration : 2h 6mn
Overall bit rate : 1 478 Kbps
Writing application : VirtualDubMod 1.5.10.2 (build 2542/release)
Writing library : VirtualDubMod build 2542/release
Original source form : MAX TORRENTZ
Copyright : SIGISMUNT

Video
ID : 0
Format : MPEG-4 Visual
Format profile : [email protected]
Format settings, BVOP : Yes
Format settings, QPel : No
Format settings, GMC : No warppoints
Format settings, Matrix : Default (H.263)
Muxing mode : Packed bitstream
Codec ID : XVID
Codec ID/Hint : XviD
Duration : 2h 6mn
Bit rate : 1 089 Kbps
Width : 624 pixels
Height : 352 pixels
Display aspect ratio : 16:9
Frame rate : 23.976 fps
Resolution : 24 bits
Colorimetry : 4:2:0
Scan type : Progressive
Bits/(Pixel*Frame) : 0.207
Stream size : 984 MiB (74%)
Writing library : XviD 64

Audio
ID : 1
Format : AC-3
Format/Info : Audio Coding 3
Codec ID : 2000
Duration : 2h 6mn
Bit rate mode : Constant
Bit rate : 384 Kbps
Channel(s) : 6 channels
Channel positions : Front: L C R, Surround: L R, LFE
Sampling rate : 48.0 KHz
Stream size : 347 MiB (26%)
Alignment : Aligned on interleaves
Interleave, duration : 64 ms (1.53 video frames)
Interleave, preload duration : 192 ms

Source: DVD (perfect a/v/sync quality,sample included)
This torrent is not seedbox supported,please seed it to the MAX

Note: We need anything you can offer as early releases,seedboxes,links,accounts,etc
please contact us on piratepedia[@]msn/gmail.com or our website torentz 3xforum ro

How To Get Your Maxspeed (uTorrent)

Torrent Client - Preferences - Bandwidth - Number of connections - Set aprox. 500 for each
Torrent Client - Preferences - BiTorrent - Protocol Encryption - Forced
Bandwidth Allocation - High (Set download/upload limit - Unlimited)
Stop Other Active Torrents - Start downloading and wait for connections.
Enjoy and Seed for at least 1:1 ratio. Don't forget to say thanks/leave reviews.
Before downloading you should check/google search sample "release name""sample".
Greets to all actual/future p2p/scene QUALITY groups and affiliate websites.
Don't trust IMDb robot or bad ratings,always watch some trailers first.
Ignore stupid comments/fake/mislabeled/no-DVDrips/CAM/TS/RAR uploads.
Please spread this release/torrent to your friends/forums/etc.
If you need translation subs visit some subtitles sites.
Report if you see online streaming or other spam links.
Recommended movie player VLC PLAYER.[/code]

Related torrents

Torrent NameAddedSizeSeedLeechHealth
7 months ago - in Movies2.76 GB00
7 months ago - in Movies705.36 MB00
9 months ago - in Other1010.26 MB10
9 months ago - in Other3.81 GB05
11 months ago - in Other2.15 GB21

Comments (0 Comments)




Please login or create a FREE account to post comments

Latest Searches

| bffs girls | dolly leigh swipe | Fucking Christmas Time Private 2016 DVDRip | Dr Jeff Rocky Mountain Vet S02E04 | Alice in Wonderland Tea | bffs group fuck | Double Penetration For Akari Asagiri s Holes | titans go s03e16 black friday preair webrip x264 srs | vikingos hdtv | A Dose Of Cock For Co Ed Jessa Rhodes |